.
Авторизация | Регистрация
Хочешь лучшие торренты? Добавь свой email!
Добавить
» » Великий Гэтсби / The Great Gatsby (2013) BDRip 1080p | Лицензия торрент скачать бесплатно




    Великий Гэтсби / The Great Gatsby (2013) BDRip 1080p | Лицензия торрент скачать бесплатно

    Опубликовал: Админ | Дата: 27-02-2015, 11:09 | Просмотров: 397



    Информация о фильме
    Название: Великий Гэтсби
    Оригинальное название: The Great Gatsby
    Год выпуска: 2013
    Жанр: Драма, мелодрама
    Выпущено: США, Австралия, Bazmark Films,Red Wagon Productions
    Режиссер: Баз Лурман
    В ролях: Леонардо ДиКаприо, Тоби Магуайр, Кэри Маллиган, Джоэл Эдгертон, Айла Фишер, Лиза Адам, Фрэнк Элдридж, Амитабх Баччан, Стив Бисли, Ричард Картер, Джейсон Кларк, Эделейд Клеменс, Винс Колосимо, Макс Каллен, Мэл Дэй, Элизабет Дебики

    О фильме: Изысканная и удивительно живая история пути наверх сильного мужчины, искренне считавшего, что достигший вершин власти и богатства автоматически обретает и счастье. Мужчины, чья утрата иллюзий была медленной и очень жестокой.


    Файл
    Качество: BDRip (1080p)
    Видео: MPEG-4 AVC, 13984 Кбит/с, 1920x800
    Аудио: Русский, украинский (AC3, 6 ch, 448 Кбит/с), английский (DTS, 6 ch, 1510 Кбит/с)
    Размер: 16.27 ГБ
    Продолжительность: 02:22:06
    Перевод: Дублированный лицения
    Субтитры: Русские, английские, украинские
    MI
    Общее
    Уникальный идентификатор : 170217156615177615151240588402345237961 (0x800EA1C40689443BADA181A8CA39DDC9)
    Полное имя : The.Great.Gatsby.2013.1080p.BluRay.x264.Rus.Ukr.Eng-NTb.mkv
    Формат : Matroska
    Версия формата : Version 2
    Размер файла : 16,3 Гбайт
    Продолжительность : 2 ч. 22 м.
    Общий поток : 16,4 Мбит/сек
    Название фильма : BLUEBIRD
    Дата кодирования : UTC 2013-09-06 11:47:18
    Программа кодирования : mkvmerge v5.8.0 (;No Sleep / Pillow;) built on Sep 2 2012 15:37:04
    Библиотека кодирования : libebml v1.2.3 libmatroska v1.3.0

    Видео
    Идентификатор : 1
    Формат : AVC
    Формат/Информация : Advanced Video Codec
    Профиль формата : High@L4.1
    Параметр CABAC формата : Да
    Параметр ReFrames формата : 5 кадров
    Идентификатор кодека : V_MPEG4/ISO/AVC
    Продолжительность : 2 ч. 22 м.
    Битрейт : 13,7 Мбит/сек
    Ширина : 1920 пикселей
    Высота : 800 пикселей
    Соотношение сторон : 2,40:1
    Частота кадров : 23,976 кадра/сек
    Цветовое пространство : YUV
    Субдискретизация насыщенности : 4:2:0
    Битовая глубина : 8 бит
    Тип развёртки : Прогрессивная
    Бит/(Пиксели*Кадры) : 0.371
    Размер потока : 13,6 Гбайт (83%)
    Библиотека кодирования : x264 core 136 r2348 704 51 d1baef6 tMod 8-bit@4:2:0 X86
    Настройки программы : cabac=1 / ref=5 / deblock=1:-3:-3 / analyse=0x3:0x113 / me=umh / subme=10 / psy=1 / fade_compensate=0.00 / psy_rd=1.08:0.05 / mixed_ref=1 / me_range=32 / chroma_me=1 / trellis=2 / 8x8dct=1 / cqm=0 / deadzone=21,11 / fast_pskip=0 / chroma_qp_offset=-3 / threads=6 / lookahead_threads=1 / sliced_threads=0 / nr=0 / decimate=0 / interlaced=0 / bluray_compat=0 / constrained_intra=0 / fgo=0 / bframes=8 / b_pyramid=2 / b_adapt=2 / b_bias=0 / direct=3 / weightb=1 / open_gop=0 / weightp=2 / keyint=250 / keyint_min=23 / scenecut=40 / intra_refresh=0 / rc_lookahead=60 / rc=crf / mbtree=0 / crf=18.0000 / qcomp=0.75 / qpmin=0:0:0 / qpmax=69:69:69 / qpstep=4 / vbv_maxrate=50000 / vbv_bufsize=62500 / crf_max=0.0 / nal_hrd=none / ip_ratio=1.20 / pb_ratio=1.10 / aq=3:0.75 / aq-sensitivity=10.00 / aq-factor=1.00:1.00:1.00 / aq2=0 / aq3=0
    Язык : English
    Default : Да
    Forced : Нет

    Аудио #1
    Идентификатор : 2
    Формат : AC-3
    Формат/Информация : Audio Coding 3
    Расширение режима : CM (complete main)
    Параметр Endianness формата : Big
    Идентификатор кодека : A_AC3
    Продолжительность : 2 ч. 22 м.
    Вид битрейта : Постоянный
    Битрейт : 448 Кбит/сек
    Каналы : 6 каналов
    Расположение каналов : Front: L C R, Side: L R, LFE
    Частота : 48,0 КГц
    Битовая глубина : 16 бит
    Метод сжатия : С потерями
    Размер потока : 455 Мбайт (3%)
    Заголовок : BD EUR
    Язык : Russian
    Default : Да
    Forced : Нет

    Аудио #2
    Идентификатор : 3
    Формат : AC-3
    Формат/Информация : Audio Coding 3
    Расширение режима : CM (complete main)
    Параметр Endianness формата : Big
    Идентификатор кодека : A_AC3
    Продолжительность : 2 ч. 22 м.
    Вид битрейта : Постоянный
    Битрейт : 448 Кбит/сек
    Каналы : 6 каналов
    Расположение каналов : Front: L C R, Side: L R, LFE
    Частота : 48,0 КГц
    Битовая глубина : 16 бит
    Метод сжатия : С потерями
    Размер потока : 455 Мбайт (3%)
    Заголовок : BD EUR
    Язык : Ukrainian
    Default : Нет
    Forced : Нет

    Аудио #3
    Идентификатор : 4
    Формат : DTS
    Формат/Информация : Digital Theater Systems
    Идентификатор кодека : A_DTS
    Продолжительность : 2 ч. 22 м.
    Вид битрейта : Постоянный
    Битрейт : 1510 Кбит/сек
    Каналы : 6 каналов
    Расположение каналов : Front: L C R, Side: L R, LFE
    Частота : 48,0 КГц
    Битовая глубина : 24 бит
    Метод сжатия : С потерями
    Размер потока : 1,50 Гбайт (9%)
    Язык : English
    Default : Нет
    Forced : Нет

    Текст #1
    Идентификатор : 5
    Формат : UTF-8
    Идентификатор кодека : S_TEXT/UTF8
    Идентификатор кодека/Информация : UTF-8 Plain Text
    Заголовок : Forced
    Язык : Russian
    Default : Да
    Forced : Нет

    Текст #2
    Идентификатор : 6
    Формат : UTF-8
    Идентификатор кодека : S_TEXT/UTF8
    Идентификатор кодека/Информация : UTF-8 Plain Text
    Заголовок : Forced
    Язык : Ukrainian
    Default : Нет
    Forced : Нет

    Текст #3
    Идентификатор : 7
    Формат : UTF-8
    Идентификатор кодека : S_TEXT/UTF8
    Идентификатор кодека/Информация : UTF-8 Plain Text
    Язык : Russian
    Default : Нет
    Forced : Нет

    Текст #4
    Идентификатор : 8
    Формат : UTF-8
    Идентификатор кодека : S_TEXT/UTF8
    Идентификатор кодека/Информация : UTF-8 Plain Text
    Язык : Ukrainian
    Default : Нет
    Forced : Нет

    Текст #5
    Идентификатор : 9
    Формат : UTF-8
    Идентификатор кодека : S_TEXT/UTF8
    Идентификатор кодека/Информация : UTF-8 Plain Text
    Язык : English
    Default : Нет
    Forced : Нет

    Текст #6
    Идентификатор : 10
    Формат : UTF-8
    Идентификатор кодека : S_TEXT/UTF8
    Идентификатор кодека/Информация : UTF-8 Plain Text
    Заголовок : SDH
    Язык : English
    Default : Нет
    Forced : Нет

    Меню
    00:00:00.000 : en:00:00:00.000
    00:11:04.080 : en:00:11:04.080
    00:22:55.833 : en:00:22:55.833
    00:34:26.898 : en:00:34:26.898
    00:44:48.728 : en:00:44:48.728
    00:55:36.333 : en:00:55:36.333
    01:06:20.643 : en:01:06:20.643
    01:18:27.786 : en:01:18:27.786
    01:31:13.927 : en:01:31:13.927
    01:44:11.954 : en:01:44:11.954
    01:56:35.155 : en:01:56:35.155
    02:05:46.122 : en:02:05:46.122
    02:09:40.982 : en:02:09:40.982

    Скриншоты




    Размер: 16.27 GB (17470131646 Bytes)
    загрузка...
    Рейтинг →
     (голосов: 1, оценка 5/5, голосовать можно 1 раз )

    Другие торренты по теме:

  • Великий Гэтсби / The Great Gatsby (1974) HDRip от NovaLan
  • OST - Великий Гэтсби / The Great Gatsby (2013) MP3
  • Великий Гэтсби / The Great Gatsby (1974) DVDRip-AVC от -=HD-NET=-
  • OST - Великий Гэтсби / The Great Gatsby (2013) MP3
  • Великий Гэтсби / The Great Gatsby (2013) BDRip 720p от leonardo 59 Scarabey | iTunes Russia
  • Великий Гэтсби / The Great Gatsby (2013) BDRip-AVC от leonardo 59 Scarabey | iTunes Russia
  • Великий Гэтсби / The Great Gatsby (2013) HDRip от Scarabey | Лицензия
  • Великий Гэтсби / The Great Gatsby (2013) BDRemux 1080p | Лицензия


    • Комментарии (0):

      Информация

      Информация

        Посетители, находящиеся в группе Гости, не могут оставлять комментарии в данной новости.

        ↓ Меню



        ↓ Опрос

        А Вы добавили сайт в закладки?
        Да
        Не


        Top 10 за месяц (Фильмы)