.
Авторизация | Регистрация
» » Крепкий орешек: Хороший день, чтобы умереть / A Good Day to Die Hard (2013) DVD9 от NovaLan | Расширенная версия / Extended Cut торрент скачать бесплатно




    Крепкий орешек: Хороший день, чтобы умереть / A Good Day to Die Hard (2013) DVD9 от NovaLan | Расширенная версия / Extended Cut торрент скачать бесплатно

    Опубликовал: Админ | Дата: 27-02-2015, 11:09 | Просмотров: 320



    Название: Крепкий орешек: Хороший день, чтобы умереть
    Оригинальное название: A Good Day to Die Hard
    Год выхода: 2013
    Жанр: Боевик, триллер, криминал
    Режиссер: Джон Мур
    В ролях: Брюс Уиллис, Джей Кортни, Себастьян Кох, Юлия Снигирь, Радивойе Буквич, Сергей Колесников, Мэри Элизабет Уинстэд, Коул Хаузер, Амори Ноласко, Роман Лукнар, Павел Личникофф, Мэгалин Эчиканвоке, Мелисса Тэнг, Рико Симонини, Катрин Кресг, Эйприл Грэйс, Купер Торнтон
    О фильме:
    Джон МакКлейн узнаёт, что его сын Джек сидит в московской тюрьме - он замешан в заказном убийстве. И вот, непредсказуемый крепкий орешек едет в столицу ещё более непредсказуемой России выручать своего сына. Но, пытаясь помочь Джеку, МакКлейн невольно срывает его планы, потому что его шалопай, оказывается, шпион и агент ЦРУ. И отец с сыном объединяют свои силы, чтобы уйти от погони, которая совсем не входила в планы Джека, а в результате - не один широкий проспект Москвы превратится в автомобильное кладбище только что бегавших, блестя тонировкой и никелем, машин. Удастся ли им вместе спасти мир от тотальной угрозы? Ведь, вполне возможно, что Чернобыль ещё не всё сказал...


    Страна: США, 20th Century Fox Film Corporation, Dune Entertainment, Giant Pictures, Ingenious Media, Origo Film Group, TSG Entertainment
    Продолжительность: 01:37:11
    Перевод: Дублированный

    Кодек: MPEG-2
    Качество: DVD-9
    Видео: PAL 16:9 (720x576) VBR
    Звук: Русский, английский (Dolby AC3, 6 ch)
    Субтитры: Русские, английские

    Релиз группы NovaLan
    Производство: Blu-Ray disc DVD-9
    Автор релиза Sergei7721




    DVDInfo

    Title:
    Size: 7.58 Gb ( 7 952 834 KBytes ) - DVD-9
    Enabled regions: 1, 2, 3, 4, 5, 6, 7, 8

    VTS_01 :
    Play Length: 00:03:17
    Video: PAL 16:9 (720x576) VBR, Auto PanScan
    Audio:
    Not specified (Dolby AC3, 2 ch)

    VTS_02 :
    Play Length: 01:37:11
    Video: PAL 16:9 (720x576) VBR, Auto PanScan
    Audio:
    English (Dolby AC3, 6 ch)
    Russian (Dolby AC3, 6 ch)
    Subtitles:
    English
    Russian

    VTS_03 :
    Play Length: 00:13:53 00:01:06 00:02:01 00:01:18 00:00:57 00:01:53 00:03:33 00:03:18
    Video: PAL 16:9 (720x576) VBR, Auto PanScan
    Audio:
    English (Dolby AC3, 2 ch)
    Subtitles:
    Russian
    Greek

    VTS_04 :
    Play Length: 00:03:24 00:01:03 00:02:21
    Video: PAL 16:9 (720x576) VBR, Auto PanScan
    Audio:
    English (Dolby AC3, 6 ch)

    Menu Video:
    NTSC 4:3 (720x480) VBR
    Auto PanScan, Auto Letterboxed
    Menu English Language Unit :
    Root Menu
    Audio Menu

    MediaInfo

    Полное имя : D:Раздачи_DA.Good.Day.to.Die.Hard.2013.DVD9.NovaLanVIDEO_TSVTS_02_1.VOB
    Формат : MPEG-PS
    Размер файла : 1024 Мбайт
    Продолжительность : 14 м.
    Режим общего битрейта : Переменный
    Общий поток : 9918 Кбит/сек

    Видео
    Идентификатор : 224 (0xE0)
    Формат : MPEG Video
    Версия формата : Version 2
    Профиль формата : Main@Main
    Параметр BVOP формата : Да
    Параметр матрицы формата : Выборочная
    Продолжительность : 14 м.
    Вид битрейта : Переменный
    Битрейт : 8900 Кбит/сек
    Ширина : 720 пикселей
    Высота : 576 пикселей
    Соотношение сторон : 16:9
    Частота кадров : 25,000 кадров/сек
    Стандарт вещания : PAL
    Цветовое пространство : YUV
    Субдискретизация насыщенности : 4:2:0
    Битовая глубина : 8 бит
    Тип развёртки : Чересстрочная
    Порядок развёртки : Верхнее поле первое
    Метод сжатия : С потерями
    Бит/(Пиксели*Кадры) : 0.858
    Размер потока : 911 Мбайт (89%)

    Аудио #1
    Идентификатор : 189 (0xBD)-128 (0x80)
    Формат : AC-3
    Формат/Информация : Audio Coding 3
    Расширение режима : CM (complete main)
    Параметр Endianness формата : Big
    Режим смешивания : DVD-Video
    Продолжительность : 14 м.
    Вид битрейта : Постоянный
    Битрейт : 448 Кбит/сек
    Каналы : 6 каналов
    Расположение каналов : Front: L C R, Side: L R, LFE
    Частота : 48,0 КГц
    Битовая глубина : 16 бит
    Метод сжатия : С потерями
    Размер потока : 46,2 Мбайт (5%)

    Аудио #2
    Идентификатор : 189 (0xBD)-129 (0x81)
    Формат : AC-3
    Формат/Информация : Audio Coding 3
    Расширение режима : CM (complete main)
    Параметр Endianness формата : Big
    Режим смешивания : DVD-Video
    Продолжительность : 14 м.
    Вид битрейта : Постоянный
    Битрейт : 448 Кбит/сек
    Каналы : 6 каналов
    Расположение каналов : Front: L C R, Side: L R, LFE
    Частота : 48,0 КГц
    Битовая глубина : 16 бит
    Метод сжатия : С потерями
    Размер потока : 46,2 Мбайт (5%)


    Дополнительно
    Удаленные сцены
    *Трейлер*

    Скриншоты меню




    Релиз от:


    Залил: Sergei7721
    Размер: 7.58 GB (8143702016 Bytes)
    загрузка...
    Рейтинг →
     (голосов: 1, оценка 5/5, голосовать можно 1 раз )

    Другие торренты по теме:

  • Крепкий орешек / Die Hard (1988) BD-Remux торрент скачать бесплатно
  • OST - Крепкий орешек / Die Hard Full (2007 - 2012) MP3 торрент скачать бесплатно
  • Крепкий орешек 3: Возмездие / Die Hard: With a Vengeance (1995) BDRip 1080p торрент скачать бесплатно
  • Крепкий орешек 2 / Die Hard 2 (1990) BDRip 1080p торрент скачать бесплатно
  • Крепкий орешек 4.0 / Live Free or Die Hard (2007) HDRip-AVC торрент скачать бесплатно
  • Крепкий орешек: Хороший день, чтобы умереть / A Good Day to Die Hard (2013) CAMRip торрент скачать бесплатно
  • Крепкий орешек: Квадрология / Die Hard. Quadrilogy (1988-2007) BDRip-AVC торрент скачать бесплатно
  • Крепкий орешек: Коллекция / Die Hard: Quadrilogy (1988-2007) BDRip 1080p от R.G. GoldenShara торрент скачать бесплатно


    • Комментарии (0):

      Информация

      Информация

        Посетители, находящиеся в группе Гости, не могут оставлять комментарии в данной новости.

        ↓ Меню



        ↓ Опрос

        А Вы добавили сайт в закладки?
        Да
        Не


        Top 10 за неделю (Фильмы)