.
Авторизация | Регистрация
Хочешь лучшие торренты? Добавь свой email!
Добавить
» » Генри Фул / Henry Fool (1997) DVDRip от Rulya74 торрент скачать бесплатно




    Генри Фул / Henry Fool (1997) DVDRip от Rulya74 торрент скачать бесплатно

    Опубликовал: Админ | Дата: 27-02-2015, 11:09 | Просмотров: 310

    Генри Фул / Henry Fool (1997) DVDRip



    Информация о фильме
    Название: Генри Фул
    Оригинальное название: Henry Fool
    Год выхода: 1997
    Жанр: драма, комедия
    Режиссер: Хэл Хартли

    В ролях: Томас Джей Райан, Джеймс Урбаняк, Паркер Поузи, Мария Портер, Джеймс Саито, Кевин Корригэн, Лиам Эйкен, Михо Никайдо, Джин Руффини, Николас Хоуп...

    О фильме: Жизнь застенчивого мусорщика Саймона Грима невероятно скучна и печальна. Дни напролёт он вкалывает на работе, для того, чтобы оплатить лекарства больной матери и безделье сексуально озабоченной сестры. Единственные моменты блаженства, которые скрашивают унылое существование Саймона, это несколько спокойных минут в компании с баночкой пива.

    И когда уже казалось фортуна поставила жирный крест на судьбе несчастного мусорщика, на горизонте появился загадочный Генри Фул с большим чемоданом в руке.



    Страна: США
    Продолжительность: 02:17:24
    Перевод: Профессиональный (многоголосый закадровый), Профессиональный (двухголосый закадровый), Оригинал (Оригинал)

    Файл
    Кодек: XviD
    Качество: DVDRip
    Видео: 720x400 (1.80:1), 23.976 fps, 1678 kbps, 0.243 bit/pixel
    Аудио #1: 48 kHz, AC3 Dolby Digital, 2/0 (L,R) ch, ~192 kbps (Многоголосый)
    Аудио #2: 48 kHz, AC3 Dolby Digital, 2/0 (L,R) ch, ~192 kbps (Двухголосый)
    Аудио #3: 48 kHz, AC3 Dolby Digital, 2/0 (L,R) ch, ~192 kbps (Оригинал)
    Субтитры: Русские, Английские (внешние)



    MediaInfo
    Общее
    Полное имя : D:TorrentHenry Fool.1997.DVDRipHenry Fool.1997.DVDRip.avi
    Формат : AVI
    Формат/Информация : Audio Video Interleave
    Профиль формата : OpenDML
    Настройки формата : rec
    Размер файла : 2,17 Гбайт
    Продолжительность : 2 ч. 17 м.
    Общий поток : 2264 Кбит/сек
    Название фильма : Henry Fool (1997) DVDRip rip by Rulya74
    Программа кодирования : AVI-Mux GUI 1.17.8.3, Feb 16 201019:42:50

    Видео
    Идентификатор : 0
    Формат : MPEG-4 Visual
    Профиль формата : Advanced Simple@L5
    Параметр BVOP формата : 1
    Параметр QPel формата : Нет
    Параметр GMC формата : Без точки перехода
    Параметр матрицы формата : Выборочная
    Режим смешивания : Сжатый битовый поток
    Идентификатор кодека : XVID
    Идентификатор кодека/Подсказка : XviD
    Продолжительность : 2 ч. 17 м.
    Битрейт : 1678 Кбит/сек
    Ширина : 720 пикселей
    Высота : 400 пикселей
    Соотношение сторон : 16:9
    Частота кадров : 23,976 кадра/сек
    Цветовое пространство : YUV
    Субдискретизация насыщенности : 4:2:0
    Битовая глубина : 8 бит
    Тип развёртки : Прогрессивная
    Метод сжатия : С потерями
    Бит/(Пиксели*Кадры) : 0.243
    Размер потока : 1,61 Гбайт (74%)
    Библиотека кодирования : XviD 73

    Аудио #1
    Идентификатор : 1
    Формат : AC-3
    Формат/Информация : Audio Coding 3
    Расширение режима : CM (complete main)
    Параметр Endianness формата : Big
    Идентификатор кодека : 2000
    Продолжительность : 2 ч. 17 м.
    Вид битрейта : Постоянный
    Битрейт : 192 Кбит/сек
    Каналы : 2 канала
    Расположение каналов : Front: L R
    Частота : 48,0 КГц
    Битовая глубина : 16 бит
    Метод сжатия : С потерями
    Размер потока : 189 Мбайт (8%)
    Выравнивание : Соединение по промежуткам
    Продолжительность промежутка : 64 мс. (1,54 видеокадра)
    Время предзагрузки промежутка : 192 мс.
    Заголовок : Профессиональный (многоголосый закадровый)

    Аудио #2
    Идентификатор : 2
    Формат : AC-3
    Формат/Информация : Audio Coding 3
    Расширение режима : CM (complete main)
    Параметр Endianness формата : Big
    Идентификатор кодека : 2000
    Продолжительность : 2 ч. 17 м.
    Вид битрейта : Постоянный
    Битрейт : 192 Кбит/сек
    Каналы : 2 канала
    Расположение каналов : Front: L R
    Частота : 48,0 КГц
    Битовая глубина : 16 бит
    Метод сжатия : С потерями
    Размер потока : 189 Мбайт (8%)
    Выравнивание : Соединение по промежуткам
    Продолжительность промежутка : 64 мс. (1,53 видеокадра)
    Время предзагрузки промежутка : 192 мс.
    Заголовок : Профессиональный (двухголосый закадровый)

    Аудио #3
    Идентификатор : 3
    Формат : AC-3
    Формат/Информация : Audio Coding 3
    Расширение режима : CM (complete main)
    Параметр Endianness формата : Big
    Идентификатор кодека : 2000
    Продолжительность : 2 ч. 17 м.
    Вид битрейта : Постоянный
    Битрейт : 192 Кбит/сек
    Каналы : 2 канала
    Расположение каналов : Front: L R
    Частота : 48,0 КГц
    Битовая глубина : 16 бит
    Метод сжатия : С потерями
    Размер потока : 189 Мбайт (8%)
    Выравнивание : Соединение по промежуткам
    Продолжительность промежутка : 64 мс. (1,53 видеокадра)
    Время предзагрузки промежутка : 192 мс.
    Заголовок : Оригинал
    Скриншоты


    Залил: Rulya74
    Размер: 2.18 GB (2335519187 Bytes)
    загрузка...
    Рейтинг →
     (голосов: 1, оценка 3/5, голосовать можно 1 раз )

    Другие торренты по теме:

  • Несносный Генри / Иисус Генри Христос / Jesus Henry Christ (2012) HDRip | P
  • Криминальная фишка от Генри / Henrys Crime (2011) BDRip-AVC от Youtracker
  • Олди Генри Лайон - Богадельня. Книга первая (2013) MP3
  • Генри: Портрет серийного убийцы / Henry: Portrait of a Serial Killer (1986) BDRip от HQCLUB
  • Генри Райдер Хаггард - Жемчужина Востока (2013) MP3
  • Генри Райдер Хаггард - Дочь Монтесумы (2013) MP3
  • Генри Перселл - Музыка для театра / Henry Purcell (2013) МР3
  • Генри Обнимонстр / Henry Hugglemonster (2011) SATRip от Youtracker | P


    • Комментарии (0):

      Информация

      Информация

        Посетители, находящиеся в группе Гости, не могут оставлять комментарии в данной новости.

        ↓ Меню



        ↓ Опрос

        А Вы добавили сайт в закладки?
        Да
        Не


        Top 10 за месяц (Фильмы)