.
Авторизация | Регистрация
» » Пухлики / Huge (2010) HDTVRip | MostFilm торрент скачать бесплатно




    Пухлики / Huge (2010) HDTVRip | MostFilm торрент скачать бесплатно

    Опубликовал: Админ | Дата: 27-02-2015, 11:09 | Просмотров: 484



    Информация о фильме
    Название: Пухлики
    Оригинальное название: Huge
    Год выхода: 2010
    Жанр: драма, комедия
    Режиссер: Элоди Кин
    В ролях: Никки Блонски, Зандер Экхаус, Рэйвен Гудвин, Харви Гайлен, Хейли Хасселхофф, Эшли Холлидэй, АриСтилдман, Джина Торрес, Пол Дули, Зои Джармен

    О фильме:
    Сериал рассказывает о шести тинейджерах, а события происходят в лагере для похудения. Главная героиня сериала – Уилл (Блонски), забавная и упрямая девушка с избыточным весом, которую отправили в лагерь её состоятельные родители. Эмбер (Хэсселхофф) – немного полноватый подросток, самая худая и сексуальная девушка в лагере, однако считает себя слишком толстой. Сценарий к Huge основан на книге Саши Пэйли.


    Страна: США
    Продолжительность: ~42 минуты серия
    Перевод: Любительский (одноголосый, закадровый) - MostFilm

    Файл
    Кодек: XviD / MP3
    Качество: HDTVRip
    Видео: 720x400 (1.77), 25 fps, ~1195 kbps, 0.16 bit/pixel
    Звук: MP3, 48 kHz, 2 ch, 128 kbps
    Субтитры: отсутствуют

    Скриншоты
    MediaInfo
    General
    Complete name : E:DownloadHuge_MostFilmHuge.s01e09.HDTVRip.MostFilm.avi
    Format : AVI
    Format/Info : Audio Video Interleave
    File size : 352 MiB
    Duration : 43mn 13s
    Overall bit rate : 1 138 Kbps
    Writing application : VirtualDubMod 1.5.10.2 (build 2540/release)
    Writing library : VirtualDubMod build 2540/release

    Video
    ID : 0
    Format : MPEG-4 Visual
    Format profile : Advanced Simple@L5
    Format settings, BVOP : 1
    Format settings, QPel : No
    Format settings, GMC : No warppoints
    Format settings, Matrix : Default (MPEG)
    Codec ID : XVID
    Codec ID/Hint : XviD
    Duration : 43mn 13s
    Bit rate : 1 000 Kbps
    Width : 720 pixels
    Height : 400 pixels
    Display aspect ratio : 16:9
    Frame rate : 25.000 fps
    Color space : YUV
    Chroma subsampling : 4:2:0
    Bit depth : 8 bits
    Scan type : Progressive
    Compression mode : Lossy
    Bits/(Pixel*Frame) : 0.139
    Stream size : 309 MiB (88%)
    Writing library : XviD 64

    Audio
    ID : 1
    Format : MPEG Audio
    Format version : Version 1
    Format profile : Layer 3
    Mode : Joint stereo
    Mode extension : MS Stereo
    Codec ID : 55
    Codec ID/Hint : MP3
    Duration : 43mn 13s
    Bit rate mode : Constant
    Bit rate : 128 Kbps
    Channel(s) : 2 channels
    Sampling rate : 48.0 KHz
    Compression mode : Lossy
    Stream size : 39.6 MiB (11%)
    Alignment : Aligned on interleaves
    Interleave, duration : 40 ms (1.00 video frame)
    Interleave, preload duration : 504 ms

    Размер: 696.71 MB (730552320 Bytes)
    загрузка...
    Рейтинг →
     (голосов: 1, оценка 4/5, голосовать можно 1 раз )

    Другие торренты по теме:

  • Пухлики / Huge (2010) WEB-DLRip | Ivnet Cinema торрент скачать бесплатно


    • Комментарии (0):

      Информация

      Информация

        Посетители, находящиеся в группе Гости, не могут оставлять комментарии в данной новости.

        ↓ Меню



        ↓ Опрос

        А Вы добавили сайт в закладки?
        Да
        Не


        Top 10 за неделю (Фильмы)