.
Авторизация | Регистрация
Хочешь лучшие торренты? Добавь свой email!
Добавить
» » Брат якудзы / Brother (2000) BDRip | P, P2, A торрент скачать бесплатно




    Брат якудзы / Brother (2000) BDRip | P, P2, A торрент скачать бесплатно

    Опубликовал: Админ | Дата: 27-02-2015, 11:09 | Просмотров: 328



    Название: Брат якудзы
    Оригинальное название: Brother
    Год выпуска: 2000
    Жанр: Триллер, драма, криминал
    Выпущено: США, Великобритания, Япония, Bandai Visual Co. Ltd., Fuzzy Bunny Films (I), Little Brother Inc., Office Kitano, Recorded Picture Company (RPC), Tokyo FM Broadcasting Co. Ltd.
    Режиссер: Такеши Китано
    В ролях: Такеши Китано, Омар Эппс, Куроудо Маки, Масая Като, Сусуму Тэрадзима, Ройял Уоткинс, Ломбардо Бойяр, Рен Осуги, Рё Исибаси, Джеймс Шигета, Татьяна Али, Макото Отакэ, Коен Окумура, Наомаса Мусака, Рино Катасе, Тетсуя Ватари, Рен Мураками, Джой Накагава, Ванда-Ли Эванс, Тони Колитти, Коё Инто, Алан Марко, Энтвон Тэннер, Джозеф Раньо, Нинно Али, Пол Феддерсен, Дэн Гюнтер, Роберт Коваррубиас, Энтони Вацула, Аль Висенте, Луис Энджел, Брэдли Джей Лесли, Лобо Себастьян, Томас Чавез, Дон Сато, Хидео Кимура, Яуи Отани

    О фильме: После разгрома родного мафиозного клана боевик Аники Ямамото по прозвищу Старший Брат бежит из Японии в Америку. Здесь его встречает чужой, но не менее жестокий, мир безжалостной борьбы за власть в преступной среде, в которой Ямамото решительно отвоёвывает себе место, следуя древнему кодексу якудзы. Полагаясь только на свои силы и дорожа верными друзьями, он в одиночку ведёт войну с врагами, зная, что в самом конце кровавого пути его ждет триумф или смерть.

    Качество: BDRip
    Размер: 3.58 ГБ
    Продолжительность: 01:53:20

    Видео: XviD, 1900 Кбит/с, 720x384
    Аудио: русский, 48 kHz, AC3, 6 ch, 384 kbps avg, Профессиональный многоголосый

    Внешние файлы
    Аудио: русский, 48 kHz, AC3, 6 ch, 448 kbps avg, Профессиональный двухголосый
    Аудио: русский, 48 kHz, AC3, 6 ch, 448 kbps avg, Сергей Кузнецов Авторский
    Аудио: русский, 48 kHz, AC3, 6 ch, 448 kbps avg, Сергей Рябов Авторский
    Аудио: русский, 48 kHz, AC3, 6 ch, 448 kbps avg, Дмитрий Пучков - Гоблин Авторский
    Аудио: английский японский, 48 kHz, AC3, 6 ch, 448 kbps avg, Оригинал
    Субтитры: русские
    Субтитры: английские

    Сравнение с исходником



    Из отзывов...
    euro-banan

    Китано, который за всю свою карьеру не снял, пожалуй, ни одного вменяемого фильма про мафию, при том, что все его гангста-муви неизменно хороши и притягательны, в Брате…, пожалуй, ближе всего подобрался к канонической норме и, к своему удивлению, кем-то даже оказался воспринят на полном серьезе.
    В действительности же его якобы политкорректная проамериканская эпопея о становлении мафиозного клана в США под надзором до неприличия жестого беженца из страны восходящего солнца откровенно осмеивает жанр, как бы говоря своей ехидной улыбкой зрителю, чтобы не ожидал пафосных восхвалений вседозволенности и уклонов в сторону романтического биопика о тяжелой судьбе очередного крестного отца. И пока истинные американские бандиты в дорогих костюмах и с лакированными прическами рассуждают о правилах и этикете бизнеса, Китано с издевательским хладнокровием всаживает им свинцовые пули между глаз.

    8 из 10

    Кинопоиск
    MediaInfo
    Общее
    Полное имя : E:VideoBrat.jakudzy.2000.XviD.BDRipBrat.jakudzy.2000.AVO.rus.Goblin.ac3
    Формат : AC-3
    Формат/Информация : Audio Coding 3
    Размер файла : 363 Мбайт
    Продолжительность : 1 ч. 53 м.
    Режим общего битрейта : Постоянный
    Общий поток : 448 Кбит/сек

    Аудио
    Формат : AC-3
    Формат/Информация : Audio Coding 3
    Расширение режима : CM (complete main)
    Параметр Endianness формата : Big
    Продолжительность : 1 ч. 53 м.
    Вид битрейта : Постоянный
    Битрейт : 448 Кбит/сек
    Каналы : 6 каналов
    Расположение каналов : Front: L C R, Side: L R, LFE
    Частота : 48,0 КГц
    Битовая глубина : 16 бит
    Метод сжатия : С потерями
    Размер потока : 363 Мбайт (100%)

    Общее
    Полное имя : E:VideoBrat.jakudzy.2000.XviD.BDRipBrat.jakudzy.2000.AVO.rus.С.Кузнецов.ac3
    Формат : AC-3
    Формат/Информация : Audio Coding 3
    Размер файла : 363 Мбайт
    Продолжительность : 1 ч. 53 м.
    Режим общего битрейта : Постоянный
    Общий поток : 448 Кбит/сек

    Аудио
    Формат : AC-3
    Формат/Информация : Audio Coding 3
    Расширение режима : CM (complete main)
    Параметр Endianness формата : Big
    Продолжительность : 1 ч. 53 м.
    Вид битрейта : Постоянный
    Битрейт : 448 Кбит/сек
    Каналы : 6 каналов
    Расположение каналов : Front: L C R, Side: L R, LFE
    Частота : 48,0 КГц
    Битовая глубина : 16 бит
    Метод сжатия : С потерями
    Размер потока : 363 Мбайт (100%)

    Общее
    Полное имя : E:VideoBrat.jakudzy.2000.XviD.BDRipBrat.jakudzy.2000.AVO.rus.С.Рябов.ac3
    Формат : AC-3
    Формат/Информация : Audio Coding 3
    Размер файла : 363 Мбайт
    Продолжительность : 1 ч. 53 м.
    Режим общего битрейта : Постоянный
    Общий поток : 448 Кбит/сек

    Аудио
    Формат : AC-3
    Формат/Информация : Audio Coding 3
    Расширение режима : CM (complete main)
    Параметр Endianness формата : Big
    Продолжительность : 1 ч. 53 м.
    Вид битрейта : Постоянный
    Битрейт : 448 Кбит/сек
    Каналы : 6 каналов
    Расположение каналов : Front: L C R, Side: L R, LFE
    Частота : 48,0 КГц
    Битовая глубина : 16 бит
    Метод сжатия : С потерями
    Размер потока : 363 Мбайт (100%)

    Общее
    Полное имя : E:VideoBrat.jakudzy.2000.XviD.BDRipBrat.jakudzy.2000.DVO.rus.ac3
    Формат : AC-3
    Формат/Информация : Audio Coding 3
    Размер файла : 363 Мбайт
    Продолжительность : 1 ч. 53 м.
    Режим общего битрейта : Постоянный
    Общий поток : 448 Кбит/сек

    Аудио
    Формат : AC-3
    Формат/Информация : Audio Coding 3
    Расширение режима : CM (complete main)
    Параметр Endianness формата : Big
    Продолжительность : 1 ч. 53 м.
    Вид битрейта : Постоянный
    Битрейт : 448 Кбит/сек
    Каналы : 6 каналов
    Расположение каналов : Front: L C R, Side: L R, LFE
    Частота : 48,0 КГц
    Битовая глубина : 16 бит
    Метод сжатия : С потерями
    Размер потока : 363 Мбайт (100%)

    Общее
    Полное имя : E:VideoBrat.jakudzy.2000.XviD.BDRipBrat.jakudzy.2000.eng.srt
    Размер файла : 40,1 Кбайт

    Общее
    Полное имя : E:VideoBrat.jakudzy.2000.XviD.BDRipBrat.jakudzy.2000.Original.jpn.ac3
    Формат : AC-3
    Формат/Информация : Audio Coding 3
    Размер файла : 363 Мбайт
    Продолжительность : 1 ч. 53 м.
    Режим общего битрейта : Постоянный
    Общий поток : 448 Кбит/сек

    Аудио
    Формат : AC-3
    Формат/Информация : Audio Coding 3
    Расширение режима : CM (complete main)
    Параметр Endianness формата : Big
    Продолжительность : 1 ч. 53 м.
    Вид битрейта : Постоянный
    Битрейт : 448 Кбит/сек
    Каналы : 6 каналов
    Расположение каналов : Front: L C R, Side: L R, LFE
    Частота : 48,0 КГц
    Битовая глубина : 16 бит
    Метод сжатия : С потерями
    Размер потока : 363 Мбайт (100%)

    Общее
    Полное имя : E:VideoBrat.jakudzy.2000.XviD.BDRipBrat.jakudzy.2000.rus.srt
    Размер файла : 105 Кбайт

    Общее
    Полное имя : E:VideoBrat.jakudzy.2000.XviD.BDRipBrat.jakudzy.2000.XviD.BDRip.avi
    Формат : AVI
    Формат/Информация : Audio Video Interleave
    Размер файла : 1,82 Гбайт
    Продолжительность : 1 ч. 53 м.
    Общий поток : 2293 Кбит/сек
    Программа кодирования : VirtualDubMod 1.5.10.2 (build 2540/release)
    Библиотека кодирования : VirtualDubMod build 2540/release

    Видео
    Идентификатор : 0
    Формат : MPEG-4 Visual
    Профиль формата : Advanced Simple@L5
    Параметр BVOP формата : 1
    Параметр QPel формата : Нет
    Параметр GMC формата : Без точки перехода
    Параметр матрицы формата : Default (H.263)
    Режим смешивания : Сжатый битовый поток
    Идентификатор кодека : XVID
    Идентификатор кодека/Подсказка : XviD
    Продолжительность : 1 ч. 53 м.
    Битрейт : 1900 Кбит/сек
    Ширина : 720 пикселей
    Высота : 384 пикселя
    Соотношение сторон : 1,85:1
    Частота кадров : 24,000 кадра/сек
    Цветовое пространство : YUV
    Субдискретизация насыщенности : 4:2:0
    Битовая глубина : 8 бит
    Тип развёртки : Прогрессивная
    Метод сжатия : С потерями
    Бит/(Пиксели*Кадры) : 0.286
    Размер потока : 1,50 Гбайт (83%)
    Библиотека кодирования : XviD 1.2.1 (UTC 2008-12-04)

    Аудио
    Идентификатор : 1
    Формат : AC-3
    Формат/Информация : Audio Coding 3
    Расширение режима : CM (complete main)
    Параметр Endianness формата : Big
    Идентификатор кодека : 2000
    Продолжительность : 1 ч. 53 м.
    Вид битрейта : Постоянный
    Битрейт : 384 Кбит/сек
    Каналы : 6 каналов
    Расположение каналов : Front: L C R, Side: L R, LFE
    Частота : 48,0 КГц
    Битовая глубина : 16 бит
    Метод сжатия : С потерями
    Размер потока : 311 Мбайт (17%)
    Выравнивание : Разделение по промежуткам
    Продолжительность промежутка : 42 мс. (1,00 видеокадр)
    Время предзагрузки промежутка : 500 мс.
    Скриншоты





    Залил: msltel
    Размер: 3.59 GB (3853550094 Bytes)
    загрузка...
    Рейтинг →
     (голосов: 1, оценка 5/5, голосовать можно 1 раз )

    Другие торренты по теме:

  • Брат якудзы / Brother (2000) HDRip-AVC от Youtracker
  • Брат якудзы / Brother (2000) HDRip-AVC | L2
  • Брат якудзы / Brother (2000) BDRip 1080p | P, P2, A
  • Брат якудзы / Brother (2000) BDRip 720p | P, P2, A


    • Комментарии (0):

      Информация

      Информация

        Посетители, находящиеся в группе Гости, не могут оставлять комментарии в данной новости.

        ↓ Меню



        ↓ Опрос

        А Вы добавили сайт в закладки?
        Да
        Не


        Top 10 за месяц (Фильмы)