.
Авторизация | Регистрация
» » Лучшее предложение / La migliore offerta / The Best Offer (2013) BDRip 1080p | Лицензия торрент скачать бесплатно




    Лучшее предложение / La migliore offerta / The Best Offer (2013) BDRip 1080p | Лицензия торрент скачать бесплатно

    Опубликовал: Админ | Дата: 27-02-2015, 11:09 | Просмотров: 295



    Информация о фильме
    Название: Лучшее предложение
    Оригинальное название: La migliore offerta (The Best Offer)
    Год выпуска: 2013
    Жанр: Триллер, драма
    Выпущено: США, Италия, Paco Cinematografica, Warner Bros., Business Location Sudtirol Alto Adige
    Режиссер: Джузеппе Торнаторе
    В ролях: Джим Стёрджесс, Дональд Сазерленд, Джеффри Раш, Сильвия Хукс, Филип Джексон, Лия Кебеде, Дермот Краули, Кируна Стамелл, Майлз Ричардсон, Линн Суонсон

    О фильме: Вергилий Олдман, управляющий директор ведущего аукционного дома. В секретном зале своей виллы, он собрал сотни бесценных картин из разных эпох. Однажды таинственная женщина, скрывающая свою личность, просит продать его антиквариат ее семьи. Но Олдман заинтересован не только предметами старины, его все больше очаровывает сама женщина…




    Файл
    Качество: BDRip (1080p)
    Видео: MPEG-4 AVC, 12 Мбит/с, 1920x804
    Аудио: Русский, английский (DTS, 6 ch, 1510 Кбит/с), украинский (AC3, 6 ch, 448 Кбит/с)
    Размер: 14 ГБ
    Продолжительность: 02:09:32
    Перевод: Дублированный лицензия
    Субтитры: Русские
    MI
    Общее
    Уникальный идентификатор : 223497216625308012232710800115076833741 (0xA823FF89F153009694B8AA9E8B9621CD)
    Полное имя : C:1La.migliore.offerta.2013.D.BDRip.1080p.NNM-CLUB.mkv
    Формат : Matroska
    Версия формата : Version 2
    Размер файла : 14,0 Гбайт
    Продолжительность : 2 ч. 9 м.
    Общий поток : 15,5 Мбит/сек
    Название фильма : Luchshee.predlozhenieю2013.D.BDRip.1080p.NNM-CLUB.GIU
    Дата кодирования : UTC 2013-09-08 20:40:06
    Программа кодирования : mkvmerge v2.9.9 (;Tutu;) built on Nov 25 2009 21:13:32
    Библиотека кодирования : libebml v0.7.9 libmatroska v0.8.1

    Видео
    Идентификатор : 1
    Формат : AVC
    Формат/Информация : Advanced Video Codec
    Профиль формата : High@L4.1
    Параметр CABAC формата : Да
    Параметр ReFrames формата : 5 кадров
    Идентификатор кодека : V_MPEG4/ISO/AVC
    Продолжительность : 2 ч. 9 м.
    Битрейт : 12,0 Мбит/сек
    Ширина : 1920 пикселей
    Высота : 804 пикселя
    Соотношение сторон : 2,40:1
    Режим частоты кадров : Постоянный
    Частота кадров : 24,000 кадра/сек
    Цветовое пространство : YUV
    Субдискретизация насыщенности : 4:2:0
    Битовая глубина : 8 бит
    Тип развёртки : Прогрессивная
    Бит/(Пиксели*Кадры) : 0.324
    Размер потока : 10,6 Гбайт (76%)
    Заголовок : -=Rip by GIU=-
    Библиотека кодирования : x264 core 133 r2334 a3ac64b
    Настройки программы : cabac=1 / ref=5 / deblock=1:-3:-3 / analyse=0x3:0x113 / me=umh / subme=11 / psy=1 / psy_rd=1.00:0.50 / mixed_ref=1 / me_range=48 / chroma_me=1 / trellis=2 / 8x8dct=1 / cqm=0 / deadzone=21,11 / fast_pskip=1 / chroma_qp_offset=-4 / threads=12 / lookahead_threads=2 / sliced_threads=0 / nr=0 / decimate=0 / interlaced=0 / bluray_compat=0 / constrained_intra=0 / bframes=8 / b_pyramid=2 / b_adapt=2 / b_bias=0 / direct=3 / weightb=1 / open_gop=0 / weightp=2 / keyint=240 / keyint_min=24 / scenecut=50 / intra_refresh=0 / rc_lookahead=50 / rc=2pass / mbtree=1 / bitrate=12000 / ratetol=1.0 / qcomp=0.80 / qpmin=0 / qpmax=69 / qpstep=4 / cplxblur=20.0 / qblur=0.5 / vbv_maxrate=62500 / vbv_bufsize=78125 / nal_hrd=none / ip_ratio=1.40 / aq=1:1.00
    Язык : English
    Default : Нет
    Forced : Нет

    Аудио #1
    Идентификатор : 2
    Формат : DTS
    Формат/Информация : Digital Theater Systems
    Режим : 16
    Параметр Endianness формата : Big
    Идентификатор кодека : A_DTS
    Продолжительность : 2 ч. 9 м.
    Вид битрейта : Постоянный
    Битрейт : 1509 Кбит/сек
    Каналы : 6 каналов
    Расположение каналов : Front: L C R, Side: L R, LFE
    Частота : 48,0 КГц
    Битовая глубина : 24 бит
    Метод сжатия : С потерями
    Размер потока : 1,37 Гбайт (10%)
    Заголовок : DTS.1509.Kbps (6ch) Russian
    Язык : Russian
    Default : Да
    Forced : Нет

    Аудио #2
    Идентификатор : 3
    Формат : AC-3
    Формат/Информация : Audio Coding 3
    Расширение режима : CM (complete main)
    Параметр Endianness формата : Big
    Идентификатор кодека : A_AC3
    Продолжительность : 2 ч. 9 м.
    Вид битрейта : Постоянный
    Битрейт : 448 Кбит/сек
    Каналы : 6 каналов
    Расположение каналов : Front: L C R, Side: L R, LFE
    Частота : 48,0 КГц
    Битовая глубина : 16 бит
    Метод сжатия : С потерями
    Размер потока : 415 Мбайт (3%)
    Заголовок : AC3.448.Kbps (6ch) Ukrainian
    Язык : Ukrainian
    Default : Нет
    Forced : Нет

    Аудио #3
    Идентификатор : 4
    Формат : DTS
    Формат/Информация : Digital Theater Systems
    Режим : 16
    Параметр Endianness формата : Big
    Идентификатор кодека : A_DTS
    Продолжительность : 2 ч. 9 м.
    Вид битрейта : Постоянный
    Битрейт : 1509 Кбит/сек
    Каналы : 6 каналов
    Расположение каналов : Front: L C R, Side: L R, LFE
    Частота : 48,0 КГц
    Битовая глубина : 24 бит
    Метод сжатия : С потерями
    Размер потока : 1,37 Гбайт (10%)
    Заголовок : DTS.1509.Kbps (6ch) English
    Язык : English
    Default : Нет
    Forced : Нет

    Текст
    Идентификатор : 5
    Формат : UTF-8
    Идентификатор кодека : S_TEXT/UTF8
    Идентификатор кодека/Информация : UTF-8 Plain Text
    Заголовок : Russian (Full)
    Язык : Russian
    Default : Нет
    Forced : Нет

    Меню #1
    00:00:00.000 : en:Chapter 00
    00:00:25.750 : en:Chapter 01
    00:09:46.208 : en:Chapter 02
    00:20:07.250 : en:Chapter 03
    00:38:36.458 : en:Chapter 04
    00:51:22.541 : en:Chapter 05
    01:16:23.583 : en:Chapter 06
    01:34:46.583 : en:Chapter 07
    01:53:21.666 : en:Chapter 08

    Меню #2
    00:00:00.000 : en:Chapter 00
    00:00:25.750 : en:Chapter 01
    00:09:46.208 : en:Chapter 02
    00:20:07.250 : en:Chapter 03
    00:38:36.458 : en:Chapter 04
    00:51:22.541 : en:Chapter 05
    01:16:23.583 : en:Chapter 06
    01:34:46.583 : en:Chapter 07
    01:53:21.666 : en:Chapter 08

    Скриншоты



    Размер: 14.00 GB (15028005362 Bytes)
    загрузка...
    Рейтинг →
     (голосов: 1, оценка 5/5, голосовать можно 1 раз )

    Другие торренты по теме:

  • OST - Лучшее предложение / La migliore offerta - Soundtrack (2013) MP3 торрент скачать бесплатно
  • Лучшее предложение / La migliore offerta / The Best Offer (2013) HDRip | Звук с CAMRip торрент скачать бесплатно
  • Лучшее предложение / La migliore offerta / The Best Offer (2013) HDRip | Звук с CAMRip торрент скачать бесплатно
  • Лучшее предложение / La migliore offerta / The Best Offer (2013) Blu-Ray 1080p | Лицензия торрент скачать бесплатно
  • Лучшее предложение / La migliore offerta / The Best Offer (2013) HDRip от Scarabey | D | Лицензия торрент скачать бесплатно
  • Лучшее предложение / La migliore offerta / The Best Offer (2013) BDRemux 1080p | Лицензия торрент скачать бесплатно
  • Лучшее предложение / La migliore offerta / The Best Offer (2013) BDRip-AVC от ExKinoRay | Лицензия торрент скачать бесплатно
  • Лучшее предложение / La migliore offerta (2013) DVD9 от Youtracker | Лицензия торрент скачать бесплатно


    • Комментарии (0):

      Информация

      Информация

        Посетители, находящиеся в группе Гости, не могут оставлять комментарии в данной новости.

        ↓ Меню



        ↓ Опрос

        А Вы добавили сайт в закладки?
        Да
        Не


        Top 10 за неделю (Фильмы)