.
Авторизация | Регистрация
Хочешь лучшие торренты? Добавь свой email!
Добавить
» » Человек без прошлого / Mies vailla menneisyytta (2002) BDRip от Rulya74 торрент скачать бесплатно




    Человек без прошлого / Mies vailla menneisyytta (2002) BDRip от Rulya74 торрент скачать бесплатно

    Опубликовал: Админ | Дата: 27-02-2015, 11:09 | Просмотров: 299

    Человек без прошлого / Mies vailla menneisyytta (2002) BDRip



    Информация о фильме
    Название: Человек без прошлого
    Оригинальное название: Mies vailla menneisyytta
    Год выхода: 2002
    Жанр: триллер, драма, мелодрама, комедия, криминал, музыка
    Режиссер: Аки Каурисмяки

    В ролях: Маркку Пелтола, Кати Оутинен, Юхани Ниемеля, Кайя Пакаринен, Сакари Куосманен, Анникки Тяхти, Аннели Саули, Элина Сало, Оути Мяенпяя, Эско Никкари

    О фильме: Безработный и безымянный мужчина, обитатель финской провинции, едет в Хельсинки с единственной надеждой — найти работу. Но не успеет он сойти с поезда на вокзале, как тут же будет жестоко избит местными хулиганами, избит буквально до смерти. Его доставят в больницу, где он умрёт. Умрёт, чтобы тут же воскреснуть и, полностью потеряв память, обнаружить себя в совсем другом, нежном Хельсинки. Чтобы забыть прошлое, отказаться от него и получить от судьбы новый шанс. Этот шанс — встреча с Ирмой, женщиной в форме офицера Армии спасения…



    Страна: Финляндия, Германия, Франция
    Продолжительность: 01:32:45
    Перевод: Профессиональный (многоголосый закадровый), Оригинал (Финский)

    Файл
    Кодек: XviD
    Качество: BDRip
    Видео: 720x400 (1.80:1), 23.976 fps, 2120 kbps, 0.307 bit/pixel
    Аудио #1: 48 kHz, AC3 Dolby Digital, 3/2 (L,C,R,l,r) LFE ch, ~448.00 kbps (Русский)
    Аудио #2: 48 kHz, AC3 Dolby Digital, 3/2 (L,C,R,l,r) LFE ch, ~448.00 kbps (Финский)
    Субтитры: Русские, Английские (внешние)



    MediaInfo
    Общее
    Полное имя : D:TorrentMies vailla menneisyytta.2002.BDRipMies vailla menneisyytta.2002.BDRip.avi
    Формат : AVI
    Формат/Информация : Audio Video Interleave
    Профиль формата : OpenDML
    Размер файла : 2,05 Гбайт
    Продолжительность : 1 ч. 36 м.
    Общий поток : 3035 Кбит/сек
    Программа кодирования : VirtualDubModRus 1.5.10.2 (build 2542/release)
    Библиотека кодирования : VirtualDubMod build 2542/release

    Видео
    Идентификатор : 0
    Формат : MPEG-4 Visual
    Профиль формата : Advanced Simple@L5
    Параметр BVOP формата : 1
    Параметр QPel формата : Нет
    Параметр GMC формата : Без точки перехода
    Параметр матрицы формата : Выборочная
    Режим смешивания : Сжатый битовый поток
    Идентификатор кодека : XVID
    Идентификатор кодека/Подсказка : XviD
    Продолжительность : 1 ч. 36 м.
    Битрейт : 2120 Кбит/сек
    Ширина : 720 пикселей
    Высота : 400 пикселей
    Соотношение сторон : 16:9
    Частота кадров : 23,976 кадра/сек
    Цветовое пространство : YUV
    Субдискретизация насыщенности : 4:2:0
    Битовая глубина : 8 бит
    Тип развёртки : Прогрессивная
    Метод сжатия : С потерями
    Бит/(Пиксели*Кадры) : 0.307
    Размер потока : 1,44 Гбайт (70%)
    Библиотека кодирования : XviD 73

    Аудио #1
    Идентификатор : 1
    Формат : AC-3
    Формат/Информация : Audio Coding 3
    Расширение режима : CM (complete main)
    Параметр Endianness формата : Big
    Идентификатор кодека : 2000
    Продолжительность : 1 ч. 36 м.
    Вид битрейта : Постоянный
    Битрейт : 448 Кбит/сек
    Каналы : 6 каналов
    Расположение каналов : Front: L C R, Side: L R, LFE
    Частота : 48,0 КГц
    Битовая глубина : 16 бит
    Метод сжатия : С потерями
    Размер потока : 310 Мбайт (15%)
    Выравнивание : Разделение по промежуткам
    Продолжительность промежутка : 42 мс. (1,00 видеокадр)
    Время предзагрузки промежутка : 500 мс.
    Заголовок : Профессиональный (многоголосый закадровый)

    Аудио #2
    Идентификатор : 2
    Формат : AC-3
    Формат/Информация : Audio Coding 3
    Расширение режима : CM (complete main)
    Параметр Endianness формата : Big
    Идентификатор кодека : 2000
    Продолжительность : 1 ч. 36 м.
    Вид битрейта : Постоянный
    Битрейт : 448 Кбит/сек
    Каналы : 6 каналов
    Расположение каналов : Front: L C R, Side: L R, LFE
    Частота : 48,0 КГц
    Битовая глубина : 16 бит
    Метод сжатия : С потерями
    Размер потока : 310 Мбайт (15%)
    Выравнивание : Разделение по промежуткам
    Продолжительность промежутка : 42 мс. (1,00 видеокадр)
    Время предзагрузки промежутка : 500 мс.
    Заголовок : Оригинал (Финский)
    Скриншоты

    Залил: Rulya74
    Размер: 2.05 GB (2205709004 Bytes)
    загрузка...
    Рейтинг →
     (голосов: 1, оценка 4/5, голосовать можно 1 раз )

    Другие торренты по теме:

  • Человек без прошлого / Mies vailla menneisyytta / The Man Without a Past (2002) DVDRip от Scarabey | Р
  • Человек без прошлого / Mies vailla menneisyytta (2002) BDRip-AVC от HELLYWOOD | P2 | Лицензия
  • Человек без прошлого / Mies vailla menneisyytt / The Man Without a Past (2002) HDRip от Scarabey | Р скачать через торрент бесплатно
  • Человек без лица / The Man without a Face (1993) BDRemux | P, A скачать через торрент бесплатно
  • Человек без памяти / Пазл / LUomo senza memoria / Puzzle (1974) DVDRip - от NovaLan скачать через торрент бесплатно
  • Человек без лица / The Man without a Face (1993) BDRip-AVC | P, A
  • Человек без лица / The Man without a Face (1993) BDRip-AVC | P скачать через торрент бесплатно
  • Человек без покровов (Изгой) / Man Exposed / Riisuttu mies (2006) DVDRip скачать через торрент бесплатно


    • Комментарии (0):

      Информация

      Информация

        Посетители, находящиеся в группе Гости, не могут оставлять комментарии в данной новости.

        ↓ Меню



        ↓ Опрос

        А Вы добавили сайт в закладки?
        Да
        Не


        Top 10 за месяц (Фильмы)