.
Авторизация | Регистрация
Хочешь лучшие торренты? Добавь свой email!
Добавить
» » Византия / Byzantium (2012) WEB-DL 720p от Youtracer | D, P | лицензия торрент скачать бесплатно




    Византия / Byzantium (2012) WEB-DL 720p от Youtracer | D, P | лицензия торрент скачать бесплатно

    Опубликовал: Админ | Дата: 27-02-2015, 11:09 | Просмотров: 335

    Нет связи крепче, чем узы крови


    Страна: Великобритания, США, Ирландия
    Студия: Demarest Films, Lip Sync Productions...
    Жанр: ужасы, фэнтези, триллер, драма
    Год выпуска: 2012
    Продолжительность: 01:58:07

    Перевод: Профессиональный (дублированный) профессиональный (многоголосый)
    Субтитры: нет
    Оригинальная аудиодорожка: английский

    Режиссер: Нил Джордан / Neil Jordan

    В ролях: Сирша Ронан, Джемма Артертон, Сэм Райли, Калеб Лэндри Джонс, Дэниэл Мейс, Джонни Ли Миллер, Туре Линдхардт, Ури Гавриел, Мария Дойл Кеннеди, Кэролайн Джонс...

    Описание: История партнёрства вампиров — матери и дочери, которые выдают себя за сестёр.



    Исходники: Byzantium.2012.720p.WEB-DL.DD5.1.H.264-ELiTE.mkv DVD9 R5
    Тип релиза: WEB-DL 720p
    Контейнер: MKV

    Видео: 1280x544 (2.35:1), 24.000 fps, H264 ~4156 kbps avg, 0.249 bit/pixel
    Аудио 1: Русский 48 kHz, AC3, 6 ch, 448.00 kbps Constant (DUB)
    Аудио 2: Русский 48 kHz, AC3, 6 ch, 448.00 kbps Constant (MVO)
    Аудио 3: Английский 48 kHz, AC3, 6 ch, 384.00 kbps Constant
    Дополнительно: Для удобства навигации файл разбит на главы

    MediaInfo

    Общее
    Полное имя : Vizantiya.2012.D.WEB-DL.720p.mkv
    Формат : Matroska
    Версия формата : Version 4 / Version 2
    Размер файла : 4,56 Гбайт
    Продолжительность : 1 ч. 58 м.
    Общий поток : 5528 Кбит/сек
    Дата кодирования : UTC 2013-09-11 11:04:51
    Программа кодирования : mkvmerge v6.1.0 (;Old Devil;) built on Mar 2 2013 14:32:37
    Библиотека кодирования : libebml v1.3.0 libmatroska v1.4.0

    Видео
    Идентификатор : 1
    Формат : AVC
    Формат/Информация : Advanced Video Codec
    Профиль формата : Main@L3.1
    Параметр CABAC формата : Нет
    Параметр ReFrames формата : 2 кадра
    Идентификатор кодека : V_MPEG4/ISO/AVC
    Продолжительность : 1 ч. 58 м.
    Битрейт : 4138 Кбит/сек
    Ширина : 1280 пикселей
    Высота : 544 пикселя
    Соотношение сторон : 2,35:1
    Режим частоты кадров : Постоянный
    Частота кадров : 24,000 кадра/сек
    Цветовое пространство : YUV
    Субдискретизация насыщенности : 4:2:0
    Битовая глубина : 8 бит
    Тип развёртки : Прогрессивная
    Бит/(Пиксели*Кадры) : 0.248
    Размер потока : 3,41 Гбайт (75%)
    Язык : English
    Default : Да
    Forced : Нет
    Основные цвета : BT.709
    Характеристики трансфера : BT.709
    Коэффициенты матрицы : BT.709

    Аудио #1
    Идентификатор : 2
    Формат : AC-3
    Формат/Информация : Audio Coding 3
    Расширение режима : CM (complete main)
    Параметр Endianness формата : Big
    Идентификатор кодека : A_AC3
    Продолжительность : 1 ч. 58 м.
    Вид битрейта : Постоянный
    Битрейт : 448 Кбит/сек
    Каналы : 6 каналов
    Расположение каналов : Front: L C R, Side: L R, LFE
    Частота : 48,0 КГц
    Битовая глубина : 16 бит
    Метод сжатия : С потерями
    Размер потока : 379 Мбайт (8%)
    Заголовок : DUB 448 kbps
    Язык : Russian
    Default : Да
    Forced : Нет

    Аудио #2
    Идентификатор : 3
    Формат : AC-3
    Формат/Информация : Audio Coding 3
    Расширение режима : CM (complete main)
    Параметр Endianness формата : Big
    Идентификатор кодека : A_AC3
    Продолжительность : 1 ч. 58 м.
    Вид битрейта : Постоянный
    Битрейт : 448 Кбит/сек
    Каналы : 6 каналов
    Расположение каналов : Front: L C R, Side: L R, LFE
    Частота : 48,0 КГц
    Битовая глубина : 16 бит
    Метод сжатия : С потерями
    Размер потока : 379 Мбайт (8%)
    Заголовок : MVO 448 kbps
    Язык : Russian
    Default : Нет
    Forced : Нет

    Аудио #3
    Идентификатор : 4
    Формат : AC-3
    Формат/Информация : Audio Coding 3
    Расширение режима : CM (complete main)
    Параметр Endianness формата : Big
    Идентификатор кодека : A_AC3
    Продолжительность : 1 ч. 58 м.
    Вид битрейта : Постоянный
    Битрейт : 384 Кбит/сек
    Каналы : 6 каналов
    Расположение каналов : Front: L C R, Side: L R, LFE
    Частота : 48,0 КГц
    Битовая глубина : 16 бит
    Метод сжатия : С потерями
    Размер потока : 324 Мбайт (7%)
    Заголовок : ENGLISH AC3 6 chnls 384 kbps
    Язык : English
    Default : Нет
    Forced : Нет

    Меню
    00:00:00.000 : en:Chapter 1
    00:11:01.000 : en:Chapter 2
    00:20:26.000 : en:Chapter 3
    00:28:46.000 : en:Chapter 4
    00:41:27.000 : en:Chapter 5
    00:50:05.000 : en:Chapter 6
    01:00:45.000 : en:Chapter 7
    01:10:14.000 : en:Chapter 8
    01:20:52.000 : en:Chapter 9
    01:31:34.000 : en:Chapter 10
    01:40:58.000 : en:Chapter 11
    01:53:35.000 : en:Chapter 12

    Скриншоты



    Залил: avproh
    Размер: 4.56 GB (4897560523 Bytes)
    загрузка...
    Рейтинг →
     (голосов: 1, оценка 5/5, голосовать можно 1 раз )

    Другие торренты по теме:

  • Discovery: Византия. Утраченная империя / Discovery: Byzantium. The Lost Empire (2009) DVDRip-AVC от Тorrent-Хzona
  • Византия / Byzantium (2012) WEB-DLRip | Sub
  • Византия / Byzantium (2012) WEB-DL 720p | L1
  • Византия / Byzantium (2012) DVD9 R5 от Youtracer | D | лицензия
  • Византия / Byzantium (2012) WEB-DLRip от Youtracer | D | лицензия
  • Византия / Byzantium (2012) DVD5 от Youtracer | D | сжатый
  • Византия / Byzantium (2012) WEB-DLRip-AVC от Youtracker | D | Лицензия
  • Европа 3. Византия / Europa Universalis 3: In Nomine (2008) PC


    • Комментарии (0):

      Информация

      Информация

        Посетители, находящиеся в группе Гости, не могут оставлять комментарии в данной новости.

        ↓ Меню



        ↓ Опрос

        А Вы добавили сайт в закладки?
        Да
        Не


        Top 10 за месяц (Фильмы)