.
Авторизация | Регистрация
Хочешь лучшие торренты? Добавь свой email!
Добавить
» » Дитя джунглей / Dschungelkind (2011) HDRip-AVC | A торрент скачать бесплатно




    Дитя джунглей / Dschungelkind (2011) HDRip-AVC | A торрент скачать бесплатно

    Опубликовал: Админ | Дата: 27-02-2015, 11:09 | Просмотров: 372



    Год выпуска: 2011
    Жанр: Драма, приключения
    Режиссер: Роланд Зузо Рихтер
    Выпущено: Германия, ARD Degeto Film GmbH, Biscuit Films, MSM Studios
    Продолжительность: 02:11:45

    В ролях: Стелла Кункат, Томас Кречманн, Надя Уль, Сина Ткотч, Том Хосбек, Свен Гильник

    Описание: Экранизация получившего в Германии огромную известность автобиографического бестселлера Сабины Кюглер. В начале 80-х годов ХХ века Немецкий лингвист Клаус Кюглер вместе с женой и тремя детьми отправляется в джунгли Новой Гвинеи, где он изучает язык недавно обнаруженного туземного племени. В отличие от других членов семьи восьмилетняя Сабина быстро осваивается на новом месте и усваивает многие обычаи и знания туземцев. Однако мирно живущая своей жизнью семья совершенно не подозревает о том, что она оказалась в самом центре племенной вражды. Несмотря на обоюдное желание держаться в стороне друг от друга, пути пришельцев и туземцев со временем начинают постоянно пересекаться. Через девять лет уже семнадцатилетняя Сабина вынуждена покинуть Новую Гвинею, и попадает в школу-интернат в Швейцарии, где она снова встречает полностью чуждый для себя мир со своими сложностями и конфликтами.



    Качество: HDRip-AVC
    Видео: MPEG4 Video (H264) 1016x432, 24.000 кадр/сек, 2.35:1, 0.170, 1 793 Kbps
    Аудио: Dolby AC3 48000Hz 6ch 348kbps - Авторский Ю.Сербин
    Субтитры: Русские

    Скриншоты

    MediaInfo
    General
    Unique ID : 87706917714369642695972789617567859488 (0x41FBBCE8096E466743B93B73EB0E0320)
    Complete name : D:Фильмы !Дитя джунглей.mkv
    Format : Matroska
    Format version : Version 2
    File size : 1.99 GiB
    Duration : 2h 11mn
    Overall bit rate : 2 167 Kbps
    Writing application : XviD4PSP 6.0 / 53.6.0
    Writing library : XviD4PSP 6.0 / 53.6.0

    Video
    ID : 1
    Format : AVC
    Format/Info : Advanced Video Codec
    Format profile : High@L4.1
    Format settings, CABAC : Yes
    Format settings, ReFrames : 3 frames
    Codec ID : V_MPEG4/ISO/AVC
    Duration : 2h 11mn
    Bit rate : 1 793 Kbps
    Width : 1 016 pixels
    Height : 432 pixels
    Display aspect ratio : 2.35:1
    Frame rate mode : Constant
    Frame rate : 24.000 fps
    Color space : YUV
    Chroma subsampling : 4:2:0
    Bit depth : 8 bits
    Scan type : Progressive
    Bits/(Pixel*Frame) : 0.170
    Stream size : 1.60 GiB (80%)
    Writing library : x264 core 116 r2019M 9cc407d
    Encoding settings : cabac=1 / ref=3 / deblock=1:-1:-1 / analyse=0x3:0x133 / me=tesa / subme=10 / psy=1 / psy_rd=1.00:0.15 / mixed_ref=1 / me_range=16 / chroma_me=1 / trellis=2 / 8x8dct=1 / cqm=0 / deadzone=21,11 / fast_pskip=1 / chroma_qp_offset=-3 / threads=8 / sliced_threads=0 / nr=0 / decimate=1 / interlaced=0 / bluray_compat=0 / constrained_intra=0 / bframes=3 / b_pyramid=1 / b_adapt=2 / b_bias=0 / direct=3 / weightb=1 / open_gop=0 / weightp=2 / keyint=240 / keyint_min=24 / scenecut=40 / intra_refresh=0 / rc_lookahead=40 / rc=abr / mbtree=1 / bitrate=1793 / ratetol=1.0 / qcomp=0.60 / qpmin=10 / qpmax=51 / qpstep=4 / ip_ratio=1.40 / aq=1:1.00
    Language : English
    Default : Yes
    Forced : No

    Audio
    ID : 2
    Format : AC-3
    Format/Info : Audio Coding 3
    Mode extension : CM (complete main)
    Format settings, Endianness : Big
    Codec ID : A_AC3
    Duration : 2h 11mn
    Bit rate mode : Constant
    Bit rate : 384 Kbps
    Channel(s) : 6 channels
    Channel positions : Front: L C R, Side: L R, LFE
    Sampling rate : 48.0 KHz
    Bit depth : 16 bits
    Compression mode : Lossy
    Stream size : 362 MiB (18%)
    Title : Авторский одноголосый (Ю.Сербин)
    Language : Russian
    Default : Yes
    Forced : No

    Text
    ID : 3
    Format : UTF-8
    Codec ID : S_TEXT/UTF8
    Codec ID/Info : UTF-8 Plain Text
    Title : Русские
    Language : Russian
    Default : Yes
    Forced : No



    Размер: 1.99 GB (2141073168 Bytes)
    загрузка...
    Рейтинг →
     (голосов: 1, оценка 4/5, голосовать можно 1 раз )

    Другие торренты по теме:

  • Дитя джунглей / Dschungelkind (2012) HDRip от CinemaClub l L1
  • Дитя джунглей / Dschungelkind (2011) BDRemux 1080p | A
  • Дитя джунглей / Dschungelkind (2011) BDRip 720p от ExKinoRay | A
  • Дитя джунглей / Dschungelkind (2011) BDRip-AVC от ExKinoRay | A
  • Дитя джунглей / Dschungelkind (2011) BDRip от ExKinoRay | A
  • Дитя джунглей / Dschungelkind (2011) BDRip 720p от NoLimits-Team FireBit-Films | A
  • Дитя джунглей / Dschungelkind (2011) BDRip 1080p от ExKinoRay | A
  • Дитя джунглей / Dschungelkind (2011) BDRip от Rulya74 | A


    • Комментарии (0):

      Информация

      Информация

        Посетители, находящиеся в группе Гости, не могут оставлять комментарии в данной новости.

        ↓ Меню



        ↓ Опрос

        А Вы добавили сайт в закладки?
        Да
        Не


        Top 10 за месяц (Фильмы)