.
Авторизация | Регистрация
Хочешь лучшие торренты? Добавь свой email!
Добавить
» » Стартрек: Возмездие / Star Trek Into Darkness (2013) BDRip-AVC от FireBit-Films NoLimits-Team | Лицензия торрент скачать бесплатно




    Стартрек: Возмездие / Star Trek Into Darkness (2013) BDRip-AVC от FireBit-Films NoLimits-Team | Лицензия торрент скачать бесплатно

    Опубликовал: Админ | Дата: 27-02-2015, 11:09 | Просмотров: 299



    Информация о фильме
    Русское название: Стартрек: Возмездие
    Оригинальное название: Star Trek Into Darkness
    Год выпуска: 2013
    Жанр: фантастика, боевик, приключения
    Режиссер: Джей Джей Абрамс
    В ролях: Крис Пайн, Закари Куинто, Бенедикт Камбербэтч, Саймон Пегг, Карл Урбан, Зои Салдана, Элис Ив, Джон Чо, Антон Ельчин, Питер Уэллер

    Описание: Вернувшись на Землю, команда корабля Энтерпрайз обнаруживает, что деятельность и принципы их организации подорваны изнутри. Флот скован необъяснимым ужасом и бездействует, пока мир все глубже погружается в бездну. Капитан Кирк берет на себя руководство операцией по поимке злодея, ответственного за этот хаос и способного уничтожить все человечество. В запутанной игре не на жизнь, а на смерть, любовь и дружба будут принесены в жертву ради единственного, что осталось у Кирка — его команды.



    Страна: США
    Продолжительность: 02:12:05
    Перевод: Дублированный - Лицензия

    Файл
    Качество: BDRip-AVC
    Формат: MKV
    Видео: AVC, 1024x432 (2.40:1), 23.976 fps, 1949 kbps, 0.184 bit/pixel
    Аудио 1: 48 kHz, AC3 Dolby Digital, 3/2 (L,C,R,l,r) LFE ch, 448.00 kbps - Russian
    Аудио 2: 48 kHz, AC3 Dolby Digital, 3/2 (L,C,R,l,r) LFE ch, 448.00 kbps - English отдельно | Яндекс Диск
    Субтитры: Русские (полные форс.), английские (UTF-8)
    Навигация по главам: Есть

    MediaInfo:
    Общее
    Уникальный идентификатор : 228035578147253933899141304290563904548 (0xAB8E0E0998F1521B8C025FDDF298D424)
    Полное имя : Star Trek Into Darkness. (2013) BDRip(AVC).mkv
    Формат : Matroska
    Версия формата : Version 2
    Размер файла : 2,21 Гбайт
    Продолжительность : 2 ч. 12 м.
    Общий поток : 2400 Кбит/сек
    Дата кодирования : UTC 2013-09-11 13:12:47
    Программа кодирования : mkvmerge v5.8.0 (;No Sleep / Pillow;) built on Sep 2 2012 15:37:04
    Библиотека кодирования : libebml v1.2.3 libmatroska v1.3.0

    Видео
    Идентификатор : 1
    Формат : AVC
    Формат/Информация : Advanced Video Codec
    Профиль формата : High@L4.1
    Параметр CABAC формата : Да
    Параметр ReFrames формата : 11 кадров
    Идентификатор кодека : V_MPEG4/ISO/AVC
    Продолжительность : 2 ч. 12 м.
    Битрейт : 1949 Кбит/сек
    Ширина : 1024 пикселя
    Высота : 432 пикселя
    Соотношение сторон : 2,40:1
    Режим частоты кадров : Постоянный
    Частота кадров : 23,976 кадра/сек
    Цветовое пространство : YUV
    Субдискретизация насыщенности : 4:2:0
    Битовая глубина : 8 бит
    Тип развёртки : Прогрессивная
    Бит/(Пиксели*Кадры) : 0.184
    Размер потока : 1,76 Гбайт (79%)
    Библиотека кодирования : x264 core 138 r2358 9e941d1
    Настройки программы : cabac=1 / ref=11 / deblock=1:-3:-3 / analyse=0x3:0x113 / me=umh / subme=10 / psy=1 / psy_rd=1.00:0.15 / mixed_ref=1 / me_range=32 / chroma_me=1 / trellis=2 / 8x8dct=1 / cqm=0 / deadzone=21,11 / fast_pskip=0 / chroma_qp_offset=-3 / threads=6 / lookahead_threads=1 / sliced_threads=0 / slices=4 / nr=0 / decimate=0 / interlaced=0 / bluray_compat=0 / constrained_intra=0 / bframes=8 / b_pyramid=2 / b_adapt=2 / b_bias=0 / direct=3 / weightb=1 / open_gop=1 / weightp=2 / keyint=240 / keyint_min=23 / scenecut=40 / intra_refresh=0 / rc=2pass / mbtree=0 / bitrate=1949 / ratetol=1.0 / qcomp=0.60 / qpmin=0 / qpmax=69 / qpstep=4 / cplxblur=20.0 / qblur=0.5 / ip_ratio=1.40 / pb_ratio=1.30 / aq=2:1.00
    Язык : English
    Default : Да
    Forced : Нет

    Аудио
    Идентификатор : 2
    Формат : AC-3
    Формат/Информация : Audio Coding 3
    Расширение режима : CM (complete main)
    Параметр Endianness формата : Big
    Идентификатор кодека : A_AC3
    Продолжительность : 2 ч. 12 м.
    Вид битрейта : Постоянный
    Битрейт : 448 Кбит/сек
    Каналы : 6 каналов
    Расположение каналов : Front: L C R, Side: L R, LFE
    Частота : 48,0 КГц
    Битовая глубина : 16 бит
    Метод сжатия : С потерями
    Размер потока : 423 Мбайт (19%)
    Заголовок : Дубляж
    Язык : Russian
    Default : Да
    Forced : Нет

    Текст #1
    Идентификатор : 3
    Формат : UTF-8
    Идентификатор кодека : S_TEXT/UTF8
    Идентификатор кодека/Информация : UTF-8 Plain Text
    Заголовок : Forced
    Язык : Russian
    Default : Да
    Forced : Да

    Текст #2
    Идентификатор : 4
    Формат : UTF-8
    Идентификатор кодека : S_TEXT/UTF8
    Идентификатор кодека/Информация : UTF-8 Plain Text
    Заголовок : Русские
    Язык : Russian
    Default : Нет
    Forced : Нет

    Текст #3
    Идентификатор : 5
    Формат : UTF-8
    Идентификатор кодека : S_TEXT/UTF8
    Идентификатор кодека/Информация : UTF-8 Plain Text
    Заголовок : Original
    Язык : English
    Default : Нет
    Forced : Нет

    Меню
    00:00:00.000 : en:00:00:00.000
    00:10:20.370 : en:00:10:20.370
    00:19:21.494 : en:00:19:21.494
    00:30:03.969 : en:00:30:03.969
    00:40:09.115 : en:00:40:09.115
    00:46:05.262 : en:00:46:05.262
    00:56:38.228 : en:00:56:38.228
    01:06:35.783 : en:01:06:35.783
    01:12:55.663 : en:01:12:55.663
    01:22:45.752 : en:01:22:45.752
    01:30:54.741 : en:01:30:54.741
    01:38:36.369 : en:01:38:36.369
    01:47:09.548 : en:01:47:09.548
    01:54:17.142 : en:01:54:17.142
    01:59:20.653 : en:01:59:20.653
    02:03:18.308 : en:02:03:18.308

    Скриншоты:



    Релиз от: Релиз группа:
    Размер: 2.21 GB (2377436877 Bytes)
    загрузка...
    Рейтинг →
     (голосов: 1, оценка 5/5, голосовать можно 1 раз )

    Другие торренты по теме:

  • Стартрек: Возмездие / Star Trek Into Darkness (2013) HDRip-720p | D | Трейлер
  • OST - Стартрек: Возмездие / Star Trek: Into Darkness (2013) AAC
  • Стартрек: Возмездие / Star Trek Into Darkness (2013) HDRip | Звук с TS
  • Стартрек: Возмездие / Star Trek Into Darkness (2013) BDRip 720p | Звук с TS
  • Стартрек: Возмездие / Star Trek Into Darkness (2013) BDRip 1080p | 3D-Video | halfOU | Звук с TS
  • Стартрек: Возмездие / Star Trek Into Darkness (2013) Blu-Ray Remux | Звук с TS
  • Стартрек: Возмездие / Star Trek Into Darkness (2013) BDRip | Звук с TS
  • Стартрек: Возмездие / Star Trek Into Darkness (2013) BDRip 720p | L1


    • Комментарии (0):

      Информация

      Информация

        Посетители, находящиеся в группе Гости, не могут оставлять комментарии в данной новости.

        ↓ Меню



        ↓ Опрос

        А Вы добавили сайт в закладки?
        Да
        Не


        Top 10 за месяц (Фильмы)