.
Авторизация | Регистрация
Хочешь лучшие торренты? Добавь свой email!
Добавить
» » Прямо в темноту / Straight Into Darkness (2004) Blu-ray Remux 1080p от MediaClub | L1 торрент скачать бесплатно




    Прямо в темноту / Straight Into Darkness (2004) Blu-ray Remux 1080p от MediaClub | L1 торрент скачать бесплатно

    Опубликовал: Админ | Дата: 27-02-2015, 11:09 | Просмотров: 308



    Информация о фильме
    Название: Прямо в темноту
    Оригинальное название: Straight Into Darkness
    Год выпуска: 2004
    Жанр: Боевик, драма, военный
    Режиссер: Джефф Барр
    В ролях: Райан Френсис, Скотт МакДональд, Линда Торсон, Джеймс ЛеГрос, Дэниэл Робак, Дэвид Уорнер, Лилиана Перепелициник, Габриэль Спайю, Ребекка Дентон, Нелю Дину, Михай Вербинтши, Ион Бекет

    О фильме:
    Рассказ о двух американских солдатах, которые во время Второй Мировой войны дезертировали и стали скрываться на окраине Франции, на сельской местности, вместе с группой вооруженных детей из приюта. И чтобы им выжить необходимо пережить суровую зиму и принять, возможно, свой последний бой с отрядом немцев…
    Ограничение
    Рейтинг R - Детям до 17 лет обязательно присутствие родителей

    Рейтинг R получают фильмы, в содержании которых обязательно содержится материал, предназначенный только для взрослой аудитории. Родителям рекомендуется хорошо подумать, прежде чем посмотреть такой фильм вместе со своими детьми.

    Фильм, получивший рейтинг R, скорее всего содержит сексуальные сцены, эпизоды с употреблением наркотиков, нецензурную брань, фрагменты с насилием и т.д.
    Благодарность
    За исходник Спасибо Respector
    Огромная благодарность Media-Art-Club за созданный постер к раздаче!
    MediaInfo
    Полное имя : G:Готово!!!Pryamo.v.temnotu.2004.x264.Blu-ray.Remux.1080p-MediaClub.mkv
    Формат : Matroska
    Версия формата : Version 2
    Размер файла : 16,8 Гбайт
    Продолжительность : 1 ч. 34 м.
    Режим общего битрейта : Переменный
    Общий поток : 25,5 Мбит/сек
    Название фильма : Pryamo v temnotu (2004) BDRemux 1080p-MediaClub-=Викс=
    Дата кодирования : UTC 2013-09-08 21:04:04
    Программа кодирования : mkvmerge v5.8.0 (;No Sleep / Pillow;) built on Sep 2 2012 15:37:04
    Библиотека кодирования : libebml v1.2.3 libmatroska v1.3.0

    Видео
    Идентификатор : 1
    Формат : AVC
    Формат/Информация : Advanced Video Codec
    Профиль формата : High@L4.1
    Параметр CABAC формата : Да
    Параметр ReFrames формата : 4 кадра
    Режим смешивания : Container profile=Unknown@0.0
    Идентификатор кодека : V_MPEG4/ISO/AVC
    Продолжительность : 1 ч. 34 м.
    Вид битрейта : Переменный
    Максимальный битрейт : 34,0 Мбит/сек
    Ширина : 1920 пикселей
    Высота : 1080 пикселей
    Соотношение сторон : 16:9
    Режим частоты кадров : Постоянный
    Частота кадров : 23,976 кадра/сек
    Стандарт вещания : NTSC
    Цветовое пространство : YUV
    Субдискретизация насыщенности : 4:2:0
    Битовая глубина : 8 бит
    Тип развёртки : Прогрессивная
    Язык : English
    Default : Нет
    Forced : Нет
    Основные цвета : BT.709
    Характеристики трансфера : BT.709
    Коэффициенты матрицы : BT.709

    Аудио #1
    Идентификатор : 2
    Формат : AC-3
    Формат/Информация : Audio Coding 3
    Расширение режима : CM (complete main)
    Параметр Endianness формата : Big
    Идентификатор кодека : A_AC3
    Продолжительность : 1 ч. 34 м.
    Вид битрейта : Постоянный
    Битрейт : 192 Кбит/сек
    Каналы : 2 канала
    Расположение каналов : Front: L R
    Частота : 48,0 КГц
    Битовая глубина : 16 бит
    Метод сжатия : С потерями
    Размер потока : 130 Мбайт (1%)
    Язык : Russian
    Default : Да
    Forced : Нет

    Аудио #2
    Идентификатор : 3
    Формат : DTS
    Формат/Информация : Digital Theater Systems
    Профиль формата : MA / Core
    Режим : 16
    Параметр Endianness формата : Big
    Идентификатор кодека : A_DTS
    Продолжительность : 1 ч. 34 м.
    Вид битрейта : Переменный
    Битрейт : Неизвестно / 1509 Кбит/сек
    Каналы : 6 каналов
    Расположение каналов : Front: L C R, Side: L R, LFE
    Частота : 48,0 КГц
    Битовая глубина : 16 бит
    Метод сжатия : Без потерь / Lossy
    Язык : English
    Default : Нет
    Forced : Нет

    Аудио #3
    Идентификатор : 4
    Формат : DTS
    Формат/Информация : Digital Theater Systems
    Режим : 16
    Параметр Endianness формата : Big
    Идентификатор кодека : A_DTS
    Продолжительность : 1 ч. 34 м.
    Вид битрейта : Постоянный
    Битрейт : 1509 Кбит/сек
    Каналы : 6 каналов
    Расположение каналов : Front: L C R, Side: L R, LFE
    Частота : 48,0 КГц
    Битовая глубина : 16 бит
    Метод сжатия : С потерями
    Размер потока : 1020 Мбайт (6%)
    Язык : German
    Default : Нет
    Forced : Нет

    Меню
    00:00:00.000 : :Chapter 01
    00:09:57.138 : :Chapter 02
    00:19:12.151 : :Chapter 03
    00:33:31.718 : :Chapter 04
    00:45:54.084 : :Chapter 05
    00:58:57.325 : :Chapter 06
    01:07:29.879 : :Chapter 07
    01:25:03.848 : :Chapter 08
    -------------------------------------------------------------------------
    Pos. in file: 18,070,116,651 bytes (78 MB/s) Timecode: 01:34:26.795

    raw stream sizes:
    track 1 : 15,591,787,968 avg. bitrate: 21,998 kbps frames: 135,947
    track 2 : 136,083,456 avg. bitrate: 192 kbps frames: 177,192
    track 3 : 1,271,770,652 avg. bitrate: 1,794 kbps frames: 531,577
    track 4 : 1,069,532,992 avg. bitrate: 1,509 kbps frames: 531,577
    -----------------------------------------------------------------------------
    sum of tracks : 18,069,175,068
    segment size : 18,072,591,870
    -----------------------------------------------------------------------------
    overhead : 3,416,802



    Страна: США
    Студия: Chuck Williams Productions, Silver Bullet
    Продолжительность: 01:34:30
    Перевод: Любительский одноголосый

    Файл
    Кодек: x264
    Качество: Blu-ray Remux 1080p
    Видео: MPEG-4 AVC, 21998 Кбит/с, 1920x1080, 23.976 кадр/с
    Звук:
    Аудио #1: Русский (AC3, 2 ch, 192 Кбит/с) / Любительский одноголосый
    Аудио #2: Английский (DTS-HD MA, 6 ch, 1794 Кбит/с)
    Аудио #3: Немецкий (DTS, 6 ch, 1509 Кбит/с)

    Семпл

    Скриншоты


    Релиз от: Работа с аудио - Викс
    Залил: Викс
    Размер: 16.83 GB (18072591922 Bytes)
    загрузка...
    Рейтинг →
     (голосов: 1, оценка 4/5, голосовать можно 1 раз )

    Другие торренты по теме:

  • Slove. Прямо в сердце (2011) BDRip-AVC от Тorrent-Хzona
  • Прямо в темноту / Straight Into Darkness (2004) BDRip 1080p от MediaClub | L1
  • Прямо в темноту / Straight Into Darkness (2004) BDRip от MediaClub | L1
  • Прямо в темноту / Straight Into Darkness (2004) BDRip-AVC от MediaClub | L1
  • Прямо в темноту / Straight Into Darkness (2004) BDRip 720p от MediaClub | L1
  • Прямо в ад / Straight to Hell (1986) DVDRip | A, L1


    • Комментарии (0):

      Информация

      Информация

        Посетители, находящиеся в группе Гости, не могут оставлять комментарии в данной новости.

        ↓ Меню



        ↓ Опрос

        А Вы добавили сайт в закладки?
        Да
        Не


        Top 10 за месяц (Фильмы)