.
Авторизация | Регистрация
» » Фэй Грим / Fay Grim (2006) DVDRip от Rulya74 торрент скачать бесплатно




    Фэй Грим / Fay Grim (2006) DVDRip от Rulya74 торрент скачать бесплатно

    Опубликовал: Админ | Дата: 27-02-2015, 11:09 | Просмотров: 306

    Фэй Грим / Fay Grim (2006) DVDRip



    Информация о фильме
    Название: Фэй Грим
    Оригинальное название: Fay Grim
    Год выхода: 2006
    Жанр: боевик, триллер, комедия
    Режиссер: Хэл Хартли

    В ролях: Паркер Поузи, Джефф Голдблюм, Томас Джей Райан, Саффрон Бёрроус, Ди-Джей Мендель, Лиам Айкен, Меган Гей, Лео Фицпатрик, Джасмин Табатабай, Чак Монтгомеру, Джеймс Урбаняк...

    О фильме: Саймон Грим и его сестра полагали, что уже никогда больше не услышат о Генри Фуле — об этом изысканном писателе-интеллектуале с низким гипнотизирующим голосом и прожженном эротомане со склонностью к педофилии в одном флаконе. Как вдруг ЦРУ обратилось к Фей с просьбой найти некие ценные документы, принадлежавшие ее мужу.

    Она соглашается помочь в обмен на освобождение Саймона из тюрьмы. Путешествуя из одной страны в другую, Фей узнает, что ее муж на самом деле жив и находится в большой опасности. Теперь ей надо опередить спецслужбы четырех стран и первой найти своего загадочного и неповторимого Генри Фула — единственного человека, которого она когда-либо любила…



    Страна: США, Германия
    Продолжительность: 01:58:11
    Перевод: Профессионаальный (многоголосый закадровый), Оригинал (Английский)

    Файл
    Кодек: XviD
    Качество: DVDRip
    Видео: 704x384 (1.83:1), 25 fps, 1715 kbps, 0.254 bit/pixel
    Аудио #1: 48 kHz, AC3 Dolby Digital, 6 ch, ~448.00 kbps (Многоголосый)
    Аудио #2: 48 kHz, AC3 Dolby Digital, 6 ch, ~448.00 kbps (Оригинал)
    Субтитры: Русские (внешние)



    MediaInfo
    Общее
    Полное имя : D:TorrentFay Grim.2006.DVDRipFay Grim.2006.DVDRip.avi
    Формат : AVI
    Формат/Информация : Audio Video Interleave
    Профиль формата : OpenDML
    Размер файла : 2,17 Гбайт
    Продолжительность : 1 ч. 58 м.
    Общий поток : 2629 Кбит/сек
    Название фильма : Fay Grim.2006.DVDRip rip by Rulya74
    Программа кодирования : VirtualDubModRus 1.5.10.2 (build 2542/release)

    Видео
    Идентификатор : 0
    Формат : MPEG-4 Visual
    Профиль формата : Advanced Simple@L5
    Параметр BVOP формата : 1
    Параметр QPel формата : Нет
    Параметр GMC формата : Без точки перехода
    Параметр матрицы формата : Выборочная
    Режим смешивания : Сжатый битовый поток
    Идентификатор кодека : XVID
    Идентификатор кодека/Подсказка : XviD
    Продолжительность : 1 ч. 58 м.
    Битрейт : 1715 Кбит/сек
    Ширина : 704 пикселя
    Высота : 384 пикселя
    Соотношение сторон : 1,85:1
    Частота кадров : 25,000 кадров/сек
    Цветовое пространство : YUV
    Субдискретизация насыщенности : 4:2:0
    Битовая глубина : 8 бит
    Тип развёртки : Прогрессивная
    Метод сжатия : С потерями
    Бит/(Пиксели*Кадры) : 0.254
    Размер потока : 1,42 Гбайт (65%)
    Библиотека кодирования : XviD 73

    Аудио #1
    Идентификатор : 1
    Формат : AC-3
    Формат/Информация : Audio Coding 3
    Расширение режима : CM (complete main)
    Параметр Endianness формата : Big
    Идентификатор кодека : 2000
    Продолжительность : 1 ч. 58 м.
    Вид битрейта : Постоянный
    Битрейт : 448 Кбит/сек
    Каналы : 6 каналов
    Расположение каналов : Front: L C R, Side: L R, LFE
    Частота : 48,0 КГц
    Битовая глубина : 16 бит
    Метод сжатия : С потерями
    Размер потока : 379 Мбайт (17%)
    Выравнивание : Разделение по промежуткам
    Продолжительность промежутка : 40 мс. (1,00 видеокадр)
    Время предзагрузки промежутка : 500 мс.
    Заголовок : Профессиональный (многоголосый закадровый)

    Аудио #2
    Идентификатор : 2
    Формат : AC-3
    Формат/Информация : Audio Coding 3
    Расширение режима : CM (complete main)
    Параметр Endianness формата : Big
    Идентификатор кодека : 2000
    Продолжительность : 1 ч. 58 м.
    Вид битрейта : Постоянный
    Битрейт : 448 Кбит/сек
    Каналы : 6 каналов
    Расположение каналов : Front: L C R, Side: L R, LFE
    Частота : 48,0 КГц
    Битовая глубина : 16 бит
    Метод сжатия : С потерями
    Размер потока : 379 Мбайт (17%)
    Выравнивание : Разделение по промежуткам
    Продолжительность промежутка : 40 мс. (1,00 видеокадр)
    Время предзагрузки промежутка : 500 мс.
    Заголовок : Оригинал (Английский)
    Скриншоты


    Залил: Rulya74
    Размер: 2.17 GB (2330922332 Bytes)
    загрузка...
    Рейтинг →
     (голосов: 1, оценка 5/5, голосовать можно 1 раз )

    Другие торренты по теме:

  • Принцесса Ян Гуй Фэй (Йокихи) / Ykihi (Princess Yang Kwei Fei) (1955) BDRip | А скачать торрент бесплатно
  • Линдси Фэй - Прах и тень (2017) MP3 скачать торрент бесплатно


    • Комментарии (0):

      Информация

      Информация

        Посетители, находящиеся в группе Гости, не могут оставлять комментарии в данной новости.

        ↓ Меню



        ↓ Опрос

        А Вы добавили сайт в закладки?
        Да
        Не


        Top 10 за неделю (Фильмы)