.
Авторизация | Регистрация
» » По барабану / Dhol (2007) DVDRip от Youtracker | P торрент скачать бесплатно




    По барабану / Dhol (2007) DVDRip от Youtracker | P торрент скачать бесплатно

    Опубликовал: Админ | Дата: 27-02-2015, 11:09 | Просмотров: 394



    Год выпуска: 2007
    Страна: Индия
    Жанр: комедия
    Продолжительность: 02:24:34

    Перевод: Профессиональный (многоголосый, закадровый)
    Оригинальная аудиодорожка: хинди
    Субтитры: нет

    Режиссер: Приядаршан / Priyadarshan

    В ролях: Шарман Джоши, Тусшар Капур, Кунал Кхему, Раджпал Ядав, Танушри Датта, Ом Пури, Синг Амбхимани Шехар, Говардан Асрани, Фарида Дади, Расика Джоши...

    Описание: История четырех друзей — Сэма, Паккии, Мару и Готи. Они беззаботно прожигают жизнь и мечтают достичь всего, не прилагая к этому особых усилий. После нескольких неудачных попыток изменить свою жизнь к лучшему они решаются на отчаянные меры. Единственный способ разбогатеть без труда — женитьба на богатой девушке.
    Эта простая мысль приходит в голову всем четверым, когда на горизонте появляется Риту. Каждый из друзей пытается покорить сердце богатой наследницы, и это приводит к сумасшедшей неразберихе с примесью изрядного количества юмора и хорошей порции острых ощущений..



    Исходник: DVD5 R5
    Тип релиза: DVDRip
    Контейнер: AVI

    Видео: 720x304 (2.35:1), 25 fps, XviD ~ 1771 kbps avg, 0.338 bit/pixel
    Аудио 1: 48 kHz, AC3, 2 ch, 192.00 kbps, русский
    Аудио 2: 48 kHz, AC3, 2 ch, 192.00 kbps, хинди

    Раздача от:
    MediaInfo

    Общее
    Полное имя : Po.barabanu.2007.P.DVDRip.2.18GB_Youtracker_by_avproh.avi
    Формат : AVI
    Формат/Информация : Audio Video Interleave
    Профиль формата : OpenDML
    Размер файла : 2,20 Гбайт
    Продолжительность : 2 ч. 24 м.
    Общий поток : 2173 Кбит/сек
    Программа кодирования : VirtualDubMod 1.5.10.3 (build 2550/release)
    Библиотека кодирования : VirtualDubMod build 2550/release

    Видео
    Идентификатор : 0
    Формат : MPEG-4 Visual
    Профиль формата : Advanced Simple@L5
    Параметр BVOP формата : 1
    Параметр QPel формата : Нет
    Параметр GMC формата : Без точки перехода
    Параметр матрицы формата : Выборочная
    Идентификатор кодека : XVID
    Идентификатор кодека/Подсказка : XviD
    Продолжительность : 2 ч. 24 м.
    Битрейт : 1771 Кбит/сек
    Ширина : 720 пикселей
    Высота : 304 пикселя
    Соотношение сторон : 2,35:1
    Частота кадров : 23,976 кадра/сек
    Цветовое пространство : YUV
    Субдискретизация насыщенности : 4:2:0
    Битовая глубина : 8 бит
    Тип развёртки : Прогрессивная
    Метод сжатия : С потерями
    Бит/(Пиксели*Кадры) : 0.338
    Размер потока : 1,79 Гбайт (81%)
    Библиотека кодирования : XviD 65

    Аудио #1
    Идентификатор : 1
    Формат : AC-3
    Формат/Информация : Audio Coding 3
    Расширение режима : CM (complete main)
    Параметр Endianness формата : Big
    Идентификатор кодека : 2000
    Продолжительность : 2 ч. 24 м.
    Вид битрейта : Постоянный
    Битрейт : 192 Кбит/сек
    Каналы : 2 канала
    Расположение каналов : Front: L R
    Частота : 48,0 КГц
    Битовая глубина : 16 бит
    Метод сжатия : С потерями
    Размер потока : 199 Мбайт (9%)
    Выравнивание : Разделение по промежуткам
    Продолжительность промежутка : 42 мс. (1,00 видеокадр)
    Время предзагрузки промежутка : 500 мс.

    Аудио #2
    Идентификатор : 2
    Формат : AC-3
    Формат/Информация : Audio Coding 3
    Расширение режима : CM (complete main)
    Параметр Endianness формата : Big
    Идентификатор кодека : 2000
    Продолжительность : 2 ч. 24 м.
    Вид битрейта : Постоянный
    Битрейт : 192 Кбит/сек
    Каналы : 2 канала
    Расположение каналов : Front: L R
    Частота : 48,0 КГц
    Битовая глубина : 16 бит
    Метод сжатия : С потерями
    Размер потока : 199 Мбайт (9%)
    Выравнивание : Разделение по промежуткам
    Продолжительность промежутка : 42 мс. (1,00 видеокадр)
    Время предзагрузки промежутка : 500 мс.

    Скриншоты



    Залил: avproh
    Размер: 2.20 GB (2358788096 Bytes)
    загрузка...
    Рейтинг →
     (голосов: 1, оценка 3/5, голосовать можно 1 раз )

    Другие торренты по теме:

  • Дух барабана / Зловещий барабан / Perng Mang: Glawng phee nang manut (2007) DVDRip | L2 торрент скачать бесплатно
  • Барабанная дробь / Drumline (2002) BDRip от HQCLUB торрент скачать бесплатно
  • Барабан - Пачка Жвачки (2014) MP3 от AGR - Generalfilm скачать через торрент бесплатно
  • Барабанная дробь / Drumline (2002) BDRip AVC скачать торрент бесплатно
  • Гюнтер Грасс - Жестяной барабан (1959) EPUB скачать торрент бесплатно


    • Комментарии (0):

      Информация

      Информация

        Посетители, находящиеся в группе Гости, не могут оставлять комментарии в данной новости.

        ↓ Меню



        ↓ Опрос

        А Вы добавили сайт в закладки?
        Да
        Не


        Top 10 за неделю (Фильмы)

        Мой парень – киллер / Mr. Right (2015) WEB-DL 1080p | L скачать торрент бесплатно

        (просмотров: 331)
        Ёлки 5 (2016) WEB-DLRip скачать торрент бесплатно

        (просмотров: 331)
        Разрушение / Demolition (2015) BDRemux 1080p от ExKinoRay | L скачать торрент бесплатно

        (просмотров: 301)
        Экипаж (2016) BDRip от New-Team | D | Лицензия скачать торрент бесплатно
        АНОНСЫ МОИХ РАЗДАЧ
        (просмотров: 301)
        Экипаж (2016) BDRip от New-Team | D | Лицензия скачать торрент бесплатно
        АНОНСЫ МОИХ РАЗДАЧ
        (просмотров: 271)
        Гений / Genius (2016) WEB-DLRip 1080p | Звук TS скачать торрент бесплатно

        (просмотров: 161)
        Кухня (1-5 сезоны: 1-100 серии из 100 + 2 бонуса) / 2012-2015 / РУ / DVDRip, WEB-DLRip скачать торрент бесплатно

        (просмотров: 151)
        Кухня (2015) SATRip скачать торрент бесплатно
        Кухня ? Кухня (2015) SATRip скачать торрент бесплатно
        (просмотров: 141)
        Дуэлянт (2016) WEB-DLRip от Scarabey | iTunes скачать торрент бесплатно

        (просмотров: 131)
        Демон внутри / Вскрытие Джейн Доу / The Autopsy of Jane Doe (2016) WEB-DLRip от Scarabey | P скачать торрент бесплатно
        Мы В КОНТАКТЕ =)
        (просмотров: 111)