.
Авторизация | Регистрация
Хочешь лучшие торренты? Добавь свой email!
Добавить
» » Иллюзия обмана / Now You See Me (2013) BDRip-AVC | Театральная версия | Лицензия торрент скачать бесплатно




    Иллюзия обмана / Now You See Me (2013) BDRip-AVC | Театральная версия | Лицензия торрент скачать бесплатно

    Опубликовал: Админ | Дата: 27-02-2015, 11:09 | Просмотров: 383



    Информация о фильме
    Название: Иллюзия обмана
    Оригинальное название: Now You See Me
    Год выпуска: 2013
    Жанр: Триллер, криминал

    Режиссер: Луи Летерье
    В ролях: Джесси Айзенберг, Дэйв Франко, Морган Фримен, Марк Руффало, Айла Фишер, Мелани Лоран, Вуди Харрельсон, Майкл Кейн, Майкл Келли, Коммон, Дэвид Уоршофски, Джессика Линдси, Каитриона Бэлфи

    О фильме: Команда лучших иллюзионистов мира проворачивает дерзкие ограбления прямо во время своих шоу, играя в кошки-мышки с агентами ФБР.



    Выпущено: Франция, США, Summit Entertainment, K/O Paper Products, SOIXAN7E QUIN
    Продолжительность: 01:55:20
    Озвучивание: Дублированное Лицензия
    Субтитры: нет

    Файл
    Качество: BDRip-AVC Рип с BDRemux 1080p
    Видео: x264, 960x400 (2.40:1), 23.9760 fps, 1610 Кbps, 0.175 bit/pixel
    Аудио: 48 kHz, AC3 Dolby Digital, 2/0 (L,R) ch, ~192 kbps
    Скачать: Сэмпл

    Сравнение
    http://rutor.org/torrent/304356/illjuzija-obmana_now-you-see-me-2013-bdrip-avc-ot-exkinoray-theatrical-cut-licenzija
    http://check2pic.ru/compare/30977/2/
    x264@log
    x264 info: frame I:1734 Avg QP:17.42 size: 54406
    x264 info: frame P:42683 Avg QP:21.09 size: 15904
    x264 info: frame B:121538 Avg QP:23.06 size: 5064
    x264 info: consecutive B-frames: 4.2% 5.0% 13.9% 28.3% 16.3% 26.2% 3.2% 1.0% 0.8% 0.6% 0.6%
    MediaInfo
    Complete name : Now.You.See.Me.2013.x264.BDRip.AVC-ed_rez.mkv
    Format : Matroska
    Format version : Version 4 / Version 2
    File size : 1.45 GiB
    Duration : 1h 55mn
    Overall bit rate : 1 799 Kbps
    Movie name : Now You See Me (2013) encoded by ed_rez
    Encoded date : UTC 2013-08-30 19:43:27
    Writing application : mkvmerge v6.3.0 (;You can;t stop me!;) built on Jun 28 2013 20:09:41
    Writing library : libebml v1.3.0 libmatroska v1.4.0

    Video
    ID : 1
    Format : AVC
    Format/Info : Advanced Video Codec
    Format profile : High@L4.1
    Format settings, CABAC : Yes
    Format settings, ReFrames : 11 frames
    Codec ID : V_MPEG4/ISO/AVC
    Duration : 1h 55mn
    Bit rate : 1 610 Kbps
    Width : 960 pixels
    Height : 400 pixels
    Display aspect ratio : 2.40:1
    Frame rate mode : Constant
    Frame rate : 23.976 fps
    Color space : YUV
    Chroma subsampling : 4:2:0
    Bit depth : 8 bits
    Scan type : Progressive
    Bits/(Pixel*Frame) : 0.175
    Stream size : 1.27 GiB (87%)
    Writing library : x264 core 133 r2334 a3ac64b
    Encoding settings : cabac=1 / ref=11 / deblock=1:-2:-1 / analyse=0x3:0x113 / me=umh / subme=10 / psy=1 / psy_rd=1.05:0.15 / mixed_ref=1 / me_range=32 / chroma_me=1 / trellis=2 / 8x8dct=1 / cqm=0 / deadzone=21,11 / fast_pskip=0 / chroma_qp_offset=-3 / threads=12 / lookahead_threads=3 / sliced_threads=0 / nr=0 / decimate=0 / interlaced=0 / bluray_compat=0 / constrained_intra=0 / bframes=10 / b_pyramid=2 / b_adapt=2 / b_bias=0 / direct=3 / weightb=1 / open_gop=0 / weightp=2 / keyint=240 / keyint_min=23 / scenecut=40 / intra_refresh=0 / rc_lookahead=80 / rc=2pass / mbtree=0 / bitrate=1610 / ratetol=1.0 / qcomp=0.60 / qpmin=0 / qpmax=69 / qpstep=4 / cplxblur=20.0 / qblur=0.5 / vbv_maxrate=20000 / vbv_bufsize=24500 / nal_hrd=none / ip_ratio=1.40 / pb_ratio=1.30 / aq=1:1.00
    Language : English
    Default : Yes
    Forced : No
    Color primaries : BT.709
    Transfer characteristics : BT.709
    Matrix coefficients : BT.709

    Audio
    ID : 2
    Format : AC-3
    Format/Info : Audio Coding 3
    Mode extension : CM (complete main)
    Format settings, Endianness : Big
    Codec ID : A_AC3
    Duration : 1h 55mn
    Bit rate mode : Constant
    Bit rate : 192 Kbps
    Channel count : 2 channels
    Channel positions : Front: L R
    Sampling rate : 48.0 KHz
    Bit depth : 16 bits
    Compression mode : Lossy
    Stream size : 158 MiB (11%)
    Title : DUB AC3, 2 ch. 192 Kbps
    Language : Russian
    Default : Yes
    Forced : No
    Скриншоты


    Размер: 1.45 GB (1556212934 Bytes)
    загрузка...
    Рейтинг →
     (голосов: 1, оценка 4/5, голосовать можно 1 раз )

    Другие торренты по теме:

  • Иллюзия обмана / Now You See Me (2012) HDRip | D | Трейлер
  • Иллюзия обмана / Now You See Me (2013) HDRip | Звук с TS
  • Иллюзия обмана / Now You See Me (2013) BDRip 1080p | iTunes
  • Иллюзия обмана / Now You See Me (2013) Blu-Ray Remux 1080p | iTunes
  • Иллюзия обмана / Now You See Me (2013) HDRip | iTunes
  • Иллюзия обмана / Now You See Me (2013) BDRip 720p от INTERCINEMA | iTunes
  • Иллюзия обмана / Now You See Me (2013) BDRip-AVC от leonardo 59 Scarabey | iTunes Russia
  • Иллюзия обмана / Now You See Me (2013) HDRip от -=HD-NET=- | КПК | iTunes Russia


    • Комментарии (0):

      Информация

      Информация

        Посетители, находящиеся в группе Гости, не могут оставлять комментарии в данной новости.

        ↓ Меню



        ↓ Опрос

        А Вы добавили сайт в закладки?
        Да
        Не


        Top 10 за месяц (Фильмы)