.
Авторизация | Регистрация




Мад / Mud (2012) BDRip 720p | A, L торрент скачать бесплатно

Опубликовал: Админ | Дата: 27-02-2015, 11:09 | Просмотров: 463



Информация о фильме
Название: Мад
Оригинальное название: Mud
Год выхода: 2012
Жанр: драма
Режиссер: Джефф Николс
В ролях: Мэттью МакКонахи, Тай Шеридан, Сэм Шепард, Риз Уизерспун, Джейкоб Лофленд, Сара Полсон, Рэй МакКиннон, Майкл Шеннон, Пол Спаркс, Джо Дон Бейкер и др..

О фильме:
Это история о двух мальчиках 14 лет, Эллисе и Некбоуне, которые случайно встречают во время одной из своих прогулок человека, прячущегося на острове посреди Миссисипи. Его зовут Мад: выбитый зуб, татуировка змеи на руке, пистолет и счастливая рубашка. А еще Мад верит в любовь — это как раз то, что нужно Эллису, чтобы забыть о напряженной обстановке в семье. Вскоре они начинают вместе чинить лодку, на которой Мад планирует покинуть остров. Однако мальчики не в состоянии понять, где правда, а где ложь в словах Мада. Действительно ли он убил человека и теперь его преследует правосудие и охотники за вознаграждением? И кто эта таинственная девушка, прибывшая в их маленький городок в штате Арканзас?
Награды

Каннский кинофестиваль, 2012 год

Номинации (1):
Золотая пальмовая ветвь



Страна: США
Продолжительность: 02:10:40
Перевод:
1. Авторский (одноголосый) Ю.Сербин
2. Любительское (многоголосое) Ирина Грачева, Александра Ларионова, Kerob, viRys

Файл
Кодек: x264
Качество: BDRip 720p NTb
Видео: 1280x544, 8874 Kbps, 23.976 fps
Звук:
Аудио 1: Russian: 48 kHz, AC3, 3/2 (L,C,R,l,r) LFE ch, ~448.00 kbps avg |AVO|
Аудио 2: Russian: 48 kHz, AC3, 3/2 (L,C,R,l,r) LFE ch, ~448.00 kbps avg |MVO|
Аудио 3: English: 48 kHz, DTS, 3/2 (L,C,R,l,r) LFE ch, ~1536.00 kbps |Original|
Аудио 4: English: 48 kHz, AAC 2/0 (L,R) ch, ~102.00 kbps avg |Commentary|
Субтитры: Русские,английские(full,SDH)
x264 log

x264 info: frame I:1655 Avg QP:14.04 size:141967
x264 info: frame P:35905 Avg QP:15.34 size: 65642
x264 info: frame B:150427 Avg QP:15.73 size: 40592
x264 info: consecutive B-frames: 1.2% 1.2% 5.7% 13.5% 16.0% 43.6% 8.8% 5.1% 5.0%
x264 info: encoded 187987 frames, 5.390 fps, 8874.83 kb/s, 8295.1 MB

MI

Общее
Уникальный идентификатор : 177650642709628785777052286992671494069 (0x85A644ED22DDCC97A66ACC4ADBB2CFB5)
Полное имя : Mud.2012.720p.mkv
Формат : Matroska
Версия формата : Version 4 / Version 2
Размер файла : 10,4 Гбайт
Продолжительность : 2 ч. 10 м.
Общий поток : 11,4 Мбит/сек
Название фильма : Created by filin1984 for Кинозал.ТВ
Дата кодирования : UTC 2013-09-13 18:15:11
Программа кодирования : mkvmerge v6.3.0 (;You can;t stop me!;) built on Jun 28 2013 20:09:41
Библиотека кодирования : libebml v1.3.0 libmatroska v1.4.0

Видео
Идентификатор : 1
Формат : AVC
Формат/Информация : Advanced Video Codec
Профиль формата : High@L4.1
Параметр CABAC формата : Да
Параметр ReFrames формата : 12 кадров
Идентификатор кодека : V_MPEG4/ISO/AVC
Продолжительность : 2 ч. 10 м.
Ширина : 1280 пикселей
Высота : 544 пикселя
Соотношение сторон : 2,35:1
Режим частоты кадров : Постоянный
Частота кадров : 23,976 кадра/сек
Цветовое пространство : YUV
Субдискретизация насыщенности : 4:2:0
Битовая глубина : 8 бит
Тип развёртки : Прогрессивная
Заголовок : NTb
Библиотека кодирования : x264 core 136 r2348 704 51 d1baef6 tMod 8-bit@4:2:0 X86
Настройки программы : cabac=1 / ref=12 / deblock=1:-3:-3 / analyse=0x3:0x113 / me=umh / subme=10 / psy=1 / fade_compensate=0.00 / psy_rd=1.08:0.05 / mixed_ref=1 / me_range=32 / chroma_me=1 / trellis=2 / 8x8dct=1 / cqm=0 / deadzone=21,11 / fast_pskip=0 / chroma_qp_offset=-3 / threads=6 / lookahead_threads=1 / sliced_threads=0 / nr=0 / decimate=0 / interlaced=0 / bluray_compat=0 / constrained_intra=0 / fgo=0 / bframes=8 / b_pyramid=2 / b_adapt=2 / b_bias=0 / direct=3 / weightb=1 / open_gop=0 / weightp=2 / keyint=250 / keyint_min=23 / scenecut=40 / intra_refresh=0 / rc_lookahead=60 / rc=crf / mbtree=0 / crf=16.0000 / qcomp=0.75 / qpmin=0:0:0 / qpmax=69:69:69 / qpstep=4 / vbv_maxrate=50000 / vbv_bufsize=62500 / crf_max=0.0 / nal_hrd=none / ip_ratio=1.20 / pb_ratio=1.10 / aq=3:0.65 / aq-sensitivity=10.00 / aq-factor=1.00:1.00:1.00 / aq2=0 / aq3=0
Язык : English
Default : Нет
Forced : Нет

Аудио #1
Идентификатор : 2
Формат : AC-3
Формат/Информация : Audio Coding 3
Расширение режима : CM (complete main)
Параметр Endianness формата : Big
Идентификатор кодека : A_AC3
Продолжительность : 2 ч. 10 м.
Вид битрейта : Постоянный
Битрейт : 448 Кбит/сек
Каналы : 6 каналов
Расположение каналов : Front: L C R, Side: L R, LFE
Частота : 48,0 КГц
Битовая глубина : 16 бит
Метод сжатия : С потерями
Размер потока : 419 Мбайт (4%)
Заголовок : AVO
Язык : Russian
Default : Да
Forced : Нет

Аудио #2
Идентификатор : 3
Формат : AC-3
Формат/Информация : Audio Coding 3
Расширение режима : CM (complete main)
Параметр Endianness формата : Big
Идентификатор кодека : A_AC3
Продолжительность : 2 ч. 10 м.
Вид битрейта : Постоянный
Битрейт : 448 Кбит/сек
Каналы : 6 каналов
Расположение каналов : Front: L C R, Side: L R, LFE
Частота : 48,0 КГц
Битовая глубина : 16 бит
Метод сжатия : С потерями
Размер потока : 419 Мбайт (4%)
Заголовок : MVO
Язык : Russian
Default : Нет
Forced : Нет

Аудио #3
Идентификатор : 4
Формат : DTS
Формат/Информация : Digital Theater Systems
Режим : 16
Параметр Endianness формата : Big
Идентификатор кодека : A_DTS
Продолжительность : 2 ч. 10 м.
Вид битрейта : Постоянный
Битрейт : 1509 Кбит/сек
Каналы : 6 каналов
Расположение каналов : Front: L C R, Side: L R, LFE
Частота : 48,0 КГц
Битовая глубина : 24 бит
Метод сжатия : С потерями
Размер потока : 1,38 Гбайт (13%)
Заголовок : Original
Язык : English
Default : Нет
Forced : Нет

Аудио #4
Идентификатор : 5
Формат : AAC
Формат/Информация : Advanced Audio Codec
Профиль формата : LC
Идентификатор кодека : A_AAC
Продолжительность : 2 ч. 10 м.
Каналы : 2 канала
Расположение каналов : Front: L R
Частота : 48,0 КГц
Метод сжатия : С потерями
Задержка видео : 9 мс.
Заголовок : Commentary
Язык : English
Default : Нет
Forced : Нет

Текст #1
Идентификатор : 6
Формат : UTF-8
Идентификатор кодека : S_TEXT/UTF8
Идентификатор кодека/Информация : UTF-8 Plain Text
Заголовок : Sub
Язык : Russian
Default : Нет
Forced : Нет

Текст #2
Идентификатор : 7
Формат : UTF-8
Идентификатор кодека : S_TEXT/UTF8
Идентификатор кодека/Информация : UTF-8 Plain Text
Заголовок : Sub
Язык : English
Default : Нет
Forced : Нет

Текст #3
Идентификатор : 8
Формат : UTF-8
Идентификатор кодека : S_TEXT/UTF8
Идентификатор кодека/Информация : UTF-8 Plain Text
Заголовок : Sub-SDH
Язык : English
Default : Нет
Forced : Нет

Меню
00:00:00.000 : en:00:00:00.000
00:07:59.187 : en:00:07:59.187
00:17:06.651 : en:00:17:06.651
00:24:48.987 : en:00:24:48.987
00:32:16.476 : en:00:32:16.476
00:39:46.175 : en:00:39:46.175
00:52:01.952 : en:00:52:01.952
00:57:58.308 : en:00:57:58.308
01:06:18.892 : en:01:06:18.892
01:17:45.286 : en:01:17:45.286
01:24:48.959 : en:01:24:48.959
01:32:28.501 : en:01:32:28.501
01:42:04.577 : en:01:42:04.577
01:50:34.378 : en:01:50:34.378
01:58:59.257 : en:01:58:59.257
02:07:01.447 : en:02:07:01.447


Скриншоты
Source vs Encode






Размер: 10.39 GB (11157994085 Bytes)
загрузка...
Рейтинг →
 (голосов: 1, оценка 4/5, голосовать можно 1 раз )

Другие торренты по теме:

  • Мадам Сен-Жен / Madame Sans-Gene (1961) DVDRip | A торрент скачать бесплатно
  • Давид и мадам Ансен / David et Madame Hansen (2012) HDRip | НТВ торрент скачать бесплатно
  • Мадам Эдуар и инспектор Леон / Madame Edouard (2004) DVDRip от Киномагия l P2 торрент скачать бесплатно
  • Мад / Mud (2012) HDRip | L торрент скачать бесплатно
  • Мад / Mud (2012) HDRip от Torrent-Xzona | КПК | L торрент скачать бесплатно
  • Мад / Mud (2012) HDRip от INTERCINEMA | Сербин торрент скачать бесплатно
  • Мад / Mud (2012) HDRip от Scarabey | Сербин торрент скачать бесплатно
  • Мад / Mud (2012) BDRip от HQCLUB торрент скачать бесплатно


    • Комментарии (0):

      Информация

      Информация

        Посетители, находящиеся в группе Гости, не могут оставлять комментарии в данной новости.

        ↓ Меню



        ↓ Опрос

        А Вы добавили сайт в закладки?
        Да
        Не


        Top 10 за неделю (Фильмы)