.
Авторизация | Регистрация
» » Баньян / Axe Giant: The Wrath of Paul Bunyan (2013) WEB-DLRip-AVC | L1 торрент скачать бесплатно




    Баньян / Axe Giant: The Wrath of Paul Bunyan (2013) WEB-DLRip-AVC | L1 торрент скачать бесплатно

    Опубликовал: Админ | Дата: 27-02-2015, 11:09 | Просмотров: 320



    Информация о фильме
    Название: Баньян
    Оригинальное название: Axe Giant: The Wrath of Paul Bunyan
    Год выхода: 2013
    Жанр: ужасы, слэшер
    Режиссер: Гари Джонс
    В ролях: Джо Эстевез, Дэн Хэггерти, Томас Дауни, Эмбер Коннор, Тим Лавлэйс, Джесси Коув, Кристина Копф, Джилл Эвин, Клифф Уильямс

    О фильме: Подростки с вожатым отправляются в поход. В лесу они находят огромные человеческие следы и сразу вспоминают легенду о гигантском лесорубе Поле Баньяне, который, якобы, скрывается от людей в местных трущобах. Легенда оказалась явью и вот уже ребята визжа от ужаса улепетывают от чудовища…



    Выпущено: США
    Продолжительность: 01:24:32
    Озвучивание: Любительское (одноголосое) den904

    Файл
    Формат: MKV
    Качество: WEB-DLRip-AVC
    Видео: 1926 kb/s, 1024x576
    Аудио: Russian / English: AC3, 192 kb/s (2 ch)





    MI

    Format : Matroska
    Format version : Version 4 / Version 2
    File size : 1.45 GiB
    Duration : 1h 30mn
    Overall bit rate : 2 308 Kbps
    Encoded date : UTC 2013-09-13 21:13:13
    Writing application : mkvmerge v6.1.0 (;Old Devil;) built on Mar 4 2013 09:10:42
    Writing library : libebml v1.3.0 libmatroska v1.4.0

    Video
    ID : 1
    Format : AVC
    Format/Info : Advanced Video Codec
    Format profile : High@L4.1
    Format settings, CABAC : Yes
    Format settings, ReFrames : 9 frames
    Codec ID : V_MPEG4/ISO/AVC
    Duration : 1h 30mn
    Bit rate : 1 926 Kbps
    Width : 1 024 pixels
    Height : 576 pixels
    Display aspect ratio : 16:9
    Frame rate : 23.976 fps
    Color space : YUV
    Chroma subsampling : 4:2:0
    Bit depth : 8 bits
    Scan type : Progressive
    Bits/(Pixel*Frame) : 0.136
    Stream size : 1.18 GiB (81%)
    Writing library : x264 core 130 r2273 b3065e6
    Encoding settings : cabac=1 / ref=9 / deblock=1:-3:-3 / analyse=0x3:0x133 / me=umh / subme=11 / psy=1 / psy_rd=1.00:0.20 / mixed_ref=1 / me_range=32 / chroma_me=1 / trellis=2 / 8x8dct=1 / cqm=0 / deadzone=21,11 / fast_pskip=0 / chroma_qp_offset=-3 / threads=12 / lookahead_threads=2 / sliced_threads=0 / nr=0 / decimate=0 / interlaced=0 / bluray_compat=0 / constrained_intra=0 / bframes=8 / b_pyramid=2 / b_adapt=2 / b_bias=0 / direct=3 / weightb=1 / open_gop=0 / weightp=2 / keyint=250 / keyint_min=23 / scenecut=40 / intra_refresh=0 / rc_lookahead=60 / rc=2pass / mbtree=1 / bitrate=1926 / ratetol=1.0 / qcomp=0.60 / qpmin=0 / qpmax=69 / qpstep=4 / cplxblur=20.0 / qblur=0.5 / ip_ratio=1.40 / aq=1:1.00
    Language : English
    Default : Yes
    Forced : No

    Audio #1
    ID : 2
    Format : AC-3
    Format/Info : Audio Coding 3
    Mode extension : CM (complete main)
    Format settings, Endianness : Big
    Codec ID : A_AC3
    Duration : 1h 30mn
    Bit rate mode : Constant
    Bit rate : 192 Kbps
    Channel(s) : 2 channels
    Channel positions : Front: L R
    Sampling rate : 48.0 KHz
    Bit depth : 16 bits
    Compression mode : Lossy
    Stream size : 124 MiB (8%)
    Language : Russian
    Default : Yes
    Forced : No

    Audio #2
    ID : 3
    Format : AC-3
    Format/Info : Audio Coding 3
    Mode extension : CM (complete main)
    Format settings, Endianness : Big
    Codec ID : A_AC3
    Duration : 1h 30mn
    Bit rate mode : Constant
    Bit rate : 192 Kbps
    Channel(s) : 2 channels
    Channel positions : Front: L R
    Sampling rate : 48.0 KHz
    Bit depth : 16 bits
    Compression mode : Lossy
    Stream size : 124 MiB (8%)
    Language : English
    Default : No
    Forced : No

    Menu
    00:00:00.000 : en:00:00:00.000
    00:10:27.000 : en:00:10:27.000
    00:18:23.000 : en:00:18:23.000
    00:26:55.000 : en:00:26:55.000
    00:34:24.000 : en:00:34:24.000
    00:43:11.000 : en:00:43:11.000
    00:50:37.000 : en:00:50:37.000
    01:00:57.000 : en:01:00:57.000
    01:09:10.000 : en:01:09:10.000
    01:19:33.000 : en:01:19:33.000
    01:26:20.000 : en:01:26:20.000
    Скриншоты

    Размер: 1.45 GB (1561122727 Bytes)
    загрузка...
    Рейтинг →
     (голосов: 1, оценка 5/5, голосовать можно 1 раз )

    Другие торренты по теме:

  • Баньян / Axe Giant: The Wrath of Paul Bunyan (2013) WEB-DLRip | L1 торрент скачать бесплатно


    • Комментарии (0):

      Информация

      Информация

        Посетители, находящиеся в группе Гости, не могут оставлять комментарии в данной новости.

        ↓ Меню



        ↓ Опрос

        А Вы добавили сайт в закладки?
        Да
        Не


        Top 10 за неделю (Фильмы)