.
Авторизация | Регистрация
» » Другой мир 2: Эволюция / Underworld: Evolution (2006) DVD5 | D торрент скачать бесплатно




    Другой мир 2: Эволюция / Underworld: Evolution (2006) DVD5 | D торрент скачать бесплатно

    Опубликовал: Админ | Дата: 27-02-2015, 11:09 | Просмотров: 451



    Информация о фильме
    Название: Другой мир 2: Эволюция
    Оригинальное название: Underworld: Evolution
    Год выхода: 2006
    Жанр: фантастика, фэнтези, боевик, триллер
    Режиссер: Лен Уайзман
    В ролях: Кейт Бекинсейл, Скотт Спидман, Тони Карран, Дерек Джекоби, Билл Найи, Стивен Макинтош, Шэйн Бролли, Брайан Стил, Зита Горог, Скотт МакЭлрой

    О фильме:
    В зловещем ночном мире, скрытом от взора простых смертных, не утихает беспощадная борьба между двумя кланами властителей мрака — вампирами и оборотнями. Настала пора узнать об истоках вековой вражды, ставшей для вампира-воительницы Селин и Майкла, полуоборотня-получеловека, проклятьем и смыслом существования.

    Сражаясь с могущественными врагами из обоих кланов, древними магистрами смерти, они познают кровавую интригу и запретную любовь, чтобы в сумраке ночи раскрыть тайну своего происхождения и своего наследия. Их ждет великая битва, которая покончит с вечным противостоянием — последняя схватка ради окончания всех войн, в которой бессмертные должны понести кару и расплатиться за свои злодеяния…




    Страна: США
    Студия: Lakeshore Entertainment, Screen Gems Inc.
    Продолжительность: 106 мин. / 01:46
    Перевод: профессиональный (полное дублирование)
    Оригинальная дорожка: отсутствует

    Файл
    Кодек: MPEG2
    Качество: DVD5
    Видео: PAL 16:9 (720x576) VBR 5365 Kbps, 25.000 fps
    Звук: Dolby AC3, 2 ch, 48.0 KHz, 192 Kbps
    Субтитры: отсутствуют

    MediaInfo
    General
    Complete name : D:Drugoy Mir EvolutsiaVIDEO_TSVTS_01_1.VOB
    Format : MPEG-PS
    File size : 1 024 MiB
    Duration : 25mn 15s
    Overall bit rate mode : Variable
    Overall bit rate : 5 670 Kbps

    Video
    ID : 224 (0xE0)
    Format : MPEG Video
    Format version : Version 2
    Format profile : Main@Main
    Format settings, BVOP : Yes
    Format settings, Matrix : Custom
    Format settings, GOP : M=3, N=15
    Duration : 25mn 15s
    Bit rate mode : Variable
    Bit rate : 5 365 Kbps
    Maximum bit rate : 8 000 Kbps
    Width : 720 pixels
    Height : 576 pixels
    Display aspect ratio : 16:9
    Frame rate : 25.000 fps
    Standard : PAL
    Color space : YUV
    Chroma subsampling : 4:2:0
    Bit depth : 8 bits
    Scan type : Interlaced
    Scan order : Top Field First
    Compression mode : Lossy
    Bits/(Pixel*Frame) : 0.517
    Time code of first frame : 01:00:00:00
    Time code source : Group of pictures t_head
    Stream size : 969 MiB (95%)

    Audio
    ID : 189 (0xBD)-128 (0x80)
    Format : AC-3
    Format/Info : Audio Coding 3
    Mode extension : CM (complete main)
    Format settings, Endianness : Big
    Muxing mode : DVD-Video
    Duration : 25mn 14s
    Bit rate mode : Constant
    Bit rate : 192 Kbps
    Channel(s) : 2 channels
    Channel positions : Front: L R
    Sampling rate : 48.0 KHz
    Bit depth : 16 bits
    Compression mode : Lossy
    Delay relative to video : -80ms
    Stream size : 34.7 MiB (3%)

    Menu

    Скриншоты

    Залил: carisha
    Размер: 4.09 GB (4387883008 Bytes)
    загрузка...
    Рейтинг →
     (голосов: 1, оценка 3/5, голосовать можно 1 раз )

    Другие торренты по теме:



      Комментарии (0):

      Информация

      Информация

        Посетители, находящиеся в группе Гости, не могут оставлять комментарии в данной новости.

        ↓ Меню



        ↓ Опрос

        А Вы добавили сайт в закладки?
        Да
        Не


        Top 10 за неделю (Фильмы)