.
Авторизация | Регистрация
Хочешь лучшие торренты? Добавь свой email!
Добавить
» » Джо / Jo (2013) HDRip-AVC | Первый канал торрент скачать бесплатно




    Джо / Jo (2013) HDRip-AVC | Первый канал торрент скачать бесплатно

    Опубликовал: Админ | Дата: 27-02-2015, 11:09 | Просмотров: 382



    Название: Джо
    Оригинальное название: Jo
    Год выпуска: 2013
    Жанр: Полицейский детектив, криминальный триллер
    Режиссер: Шери Фольксон, Кристоффер Нюхольм, Стефан Шварц
    В ролях: Жан Рено, Джилл Хеннесси, Том Остин, Орла Брэйди, Хейда Рид, Крис Брейзиер, Селин Джонс, Вунми Моссаку, Шон Пертуи, Эрик Эбони, Стивен Шагов, Джо Такер, Шон Магияр, Алексис Кендрик, Хьюго Бекер, Николас Гливс, Магнус Эрланд МакКаллаг, Джорджина Райлэнс, Жуль Тайлласьён, Рэкуэл Кэссиди, Дэвид Барк-Джонс, Чарли Энсон, Саймон Торп

    Описание: Джо Сен-Клер, детектив со стажем, работает в элитном парижском криминальном отделе, расследуя самые сложные убийства в городе. Следуя за Сен-Клером и его неустанным стремлением к справедливости, сериал покажет самые потаенные уголки знаменитых парижских достопримечательностей, таких как: Эйфелева башня, Нотр-Дам, Катакомбы и Вандомская площадь.

    Выпущено: Франция, Великобритания, Osterreichischer Rundfunk, Atlantique Productions, Radio Television Belge Francofone, Radio Television Suisse, Sat.1, Stromboli Pictures, TF1, The Mattawin Company
    Продолжительность: 8 x ~ 00:46:00
    Перевод: Профессиональный многоголосый - Первый




    Качество: HDRip-AVC
    Видео: MPEG-4 AVC, ~ 2205 Кбит/с, 1024x576
    Аудио rus: АС3, 2 ch, 192 Кбит/с
    Аудио eng: АС3, 6 ch, 448 Кбит/с

    Семпл

    Внимание! Раздача ведётся путем добавления новых серий! При обновлении раздачи нужно обновить только торрент файл, указав туже папку, где лежат предыдущие серии

    Релиз
    • tahiy

    Дата релиза: 14.09.2013

    • Профессиональный многоголосый (Первый)

    --------------------------------------------------------------------------------------------------------------
    второй проход x264:
    x264 info: frame I:683 Avg QP:15.60 size: 60605
    x264 info: frame P:18299 Avg QP:18.60 size: 23281
    x264 info: frame B:51633 Avg QP:19.78 size: 6791
    --------------------------------------------------------------------------------------------------------------


    Список серий
    1. Notre Dame
    2. Pigalle
    3. Place De La Concorde
    4. Invalides
    5. Place Vend?me
    6. Le Marais
    7. The Opera
    8. The Catacombes


    Инфо
    Полное имя: D:Джо.1.sezon.Jo.01.AVC.tahiy.mkv
    Формат : Matroska
    Версия формата : Version 2
    Размер файла : 959 Мбайт
    Продолжительность : 46 м.
    Общий поток : 2914 Кбит/сек
    Название фильма : Джо / Jo / 2013 - = Rip by tahiy = -
    Дата кодирования : UTC 2013-09-07 16:01:06
    Программа кодирования : mkvmerge v4.0.0 (;The Stars were mine;) сборка от Jun 6 2010 16:18:42
    Библиотека кодирования : libebml v1.0.0 libmatroska v1.0.0

    Видео
    Идентификатор : 1
    Формат : AVC
    Формат/Информация : Advanced Video Codec
    Профиль формата : High@L4.1
    Параметр CABAC формата : Да
    Параметр ReFrames формата : 8 кадров
    Идентификатор кодека : V_MPEG4/ISO/AVC
    Продолжительность : 46 м.
    Битрейт : 2274 Кбит/сек
    Ширина : 1024 пикселя
    Высота : 576 пикселей
    Соотношение сторон : 16:9
    Режим частоты кадров : Постоянный
    Частота кадров : 25,000 кадров/сек
    Цветовое пространство : YUV
    Субдискретизация насыщенности : 4:2:0
    Битовая глубина : 8 бит
    Тип развёртки : Прогрессивная
    Бит/(Пиксели*Кадры) : 0.154
    Размер потока : 729 Мбайт (76%)
    Заголовок : Джо / Jo / 2013 - = Rip by tahiy = -
    Библиотека кодирования : x264 core 130 r2273 b3065e6
    Настройки программы : cabac=1 / ref=8 / deblock=1:-2:-2 / analyse=0x3:0x113 / me=umh / subme=10 / psy=1 / psy_rd=1.00:0.20 / mixed_ref=1 / me_range=32 / chroma_me=1 / trellis=2 / 8x8dct=1 / cqm=0 / deadzone=21,11 / fast_pskip=0 / chroma_qp_offset=-3 / threads=3 / lookahead_threads=1 / sliced_threads=0 / nr=0 / decimate=0 / interlaced=0 / bluray_compat=0 / constrained_intra=0 / bframes=10 / b_pyramid=2 / b_adapt=2 / b_bias=0 / direct=3 / weightb=1 / open_gop=0 / weightp=2 / keyint=250 / keyint_min=25 / scenecut=40 / intra_refresh=0 / rc_lookahead=40 / rc=2pass / mbtree=0 / bitrate=2274 / ratetol=1.0 / qcomp=0.60 / qpmin=0 / qpmax=69 / qpstep=4 / cplxblur=20.0 / qblur=0.5 / vbv_maxrate=50000 / vbv_bufsize=62500 / nal_hrd=none / ip_ratio=1.40 / pb_ratio=1.30 / aq=1:1.00
    Язык : English
    Default : Да
    Forced : Нет

    Аудио #1
    Идентификатор : 2
    Формат : AC-3
    Формат/Информация : Audio Coding 3
    Расширение режима : CM (complete main)
    Параметр Endianness формата : Big
    Идентификатор кодека : A_AC3
    Продолжительность : 46 м.
    Вид битрейта : Постоянный
    Битрейт : 192 Кбит/сек
    Каналы : 2 канала
    Расположение каналов : Front: L R
    Частота : 48,0 КГц
    Битовая глубина : 16 бит
    Метод сжатия : С потерями
    Размер потока : 63,2 Мбайт (7%)
    Заголовок : ПМ (Первый)
    Язык : Russian
    Default : Да
    Forced : Нет

    Аудио #2
    Идентификатор : 3
    Формат : AC-3
    Формат/Информация : Audio Coding 3
    Расширение режима : CM (complete main)
    Параметр Endianness формата : Big
    Идентификатор кодека : A_AC3
    Продолжительность : 46 м.
    Вид битрейта : Постоянный
    Битрейт : 448 Кбит/сек
    Каналы : 6 каналов
    Расположение каналов : Front: L C R, Side: L R, LFE
    Частота : 48,0 КГц
    Битовая глубина : 16 бит
    Метод сжатия : С потерями
    Размер потока : 147 Мбайт (15%)
    Язык : English
    Default : Нет
    Forced : Нет


    Скриншоты



    Релиз от:
    Размер: 7.35 GB (7889229396 Bytes)
    загрузка...
    Рейтинг →
     (голосов: 1, оценка 4/5, голосовать можно 1 раз )

    Другие торренты по теме:

  • Киллер Джо / Killer Joe (2011) BDRip-AVC | iPad
  • Могучий Джо Янг / Mighty Joe Young (1998) DVDRip
  • Лимонадный Джо / Limondov Joe aneb Konsk opera (1964) BDRip 720p
  • Лимонадный Джо - Стой, кто идёт (1990) FLAC
  • Знакомьтесь, Джо Блэк / Meet Joe BlackMeet Joe Black (1998) BDRip 720p
  • Джо Витале - Пробуждение сознания. 4 шага к жизни, о которой вы мечтаете (2011) PDF
  • Красавчик Джо / Beautiful Joe (2000) DVDRip от 0ptimus | P2, A
  • Джо Кидд / Joe Kidd (1972) DVDRip | Р


    • Комментарии (0):

      Информация

      Информация

        Посетители, находящиеся в группе Гости, не могут оставлять комментарии в данной новости.

        ↓ Меню



        ↓ Опрос

        А Вы добавили сайт в закладки?
        Да
        Не


        Top 10 за месяц (Фильмы)