.
Авторизация | Регистрация
Хочешь лучшие торренты? Добавь свой email!
Добавить
» » Город грехов / Sin City (2005) DVD5 | D торрент скачать бесплатно




    Город грехов / Sin City (2005) DVD5 | D торрент скачать бесплатно

    Опубликовал: Админ | Дата: 27-02-2015, 11:09 | Просмотров: 391



    Информация о фильме
    Название: Город грехов
    Оригинальное название: Sin City
    Год выхода: 2005
    Жанр: боевик, триллер, криминал, детектив
    Режиссер: Фрэнк Миллер, Роберт Родригес, Квентин Тарантино
    В ролях: Брюс Уиллис, Микки Рурк, Клайв Оуэн, Розарио Доусон, Джессика Альба, Бенисио Дель Торо, Джейми Кинг, Ник Стал, Девон Аоки, Алексис Бледел

    О фильме:
    Город грехов — это адская бездна преступлений. Один из его жителей пытается найти убийцу своей подруги. Другой, фотограф, случайно становится свидетелем убийства полицейского и старается скрыть преступление. Спуститесь по глухому переулку города, и вы найдете кое-что еще. В Городе грехов полиция коррумпирована и улицы смертельно опасны…




    Страна: США
    Студия: Dimension Films, Troublemaker Studios
    Продолжительность: 124 мин. / 02:04
    Перевод: профессиональный (полное дублирование)
    Бонусы: Трейлеры: оригинальный, дублированный; На задворках Города грехов; На съемочной площадке; Анонсы

    Файл
    Кодек: MPEG2
    Качество: DVD5
    Видео: PAL 16:9 (720x576) VBR 2806 Kbps, 25.000 fps
    Звук 1: Dolby AC3, 6 ch, 48.0 KHz, 384 Kbps русский, английский
    Звук 2: DTS 6 ch, 48.0 KHz, 755 Kbps русский
    Субтитры: русские

    MediaInfo
    General
    Complete name : D:GOROD GREHOVVIDEO_TSVTS_02_1.VOB
    Format : MPEG-PS
    File size : 1 024 MiB
    Duration : 32mn 25s
    Overall bit rate mode : Variable
    Overall bit rate : 4 416 Kbps
    Writing library : encoded by TMPGEnc (ver. 2.521.58.169)

    Video
    ID : 224 (0xE0)
    Format : MPEG Video
    Format version : Version 2
    Format profile : Main@Main
    Format settings, BVOP : No
    Format settings, Matrix : Custom
    Format settings, GOP : M=3, N=13
    Duration : 32mn 25s
    Bit rate mode : Variable
    Bit rate : 2 806 Kbps
    Maximum bit rate : 8 000 Kbps
    Width : 720 pixels
    Height : 576 pixels
    Display aspect ratio : 16:9
    Frame rate : 25.000 fps
    Standard : PAL
    Color space : YUV
    Chroma subsampling : 4:2:0
    Bit depth : 8 bits
    Scan type : Interlaced
    Scan order : Top Field First
    Compression mode : Lossy
    Bits/(Pixel*Frame) : 0.271
    Time code of first frame : 00:00:00:00
    Time code source : Group of pictures t_head
    Stream size : 651 MiB (64%)
    Writing library : TMPGEnc 2.521.58.169
    Color primaries : BT.601 PAL
    Transfer characteristics : BT.470 System B, BT.470 System G
    Matrix coefficients : FCC 73.682

    Audio #1
    ID : 189 (0xBD)-128 (0x80)
    Format : AC-3
    Format/Info : Audio Coding 3
    Mode extension : CM (complete main)
    Format settings, Endianness : Big
    Muxing mode : DVD-Video
    Duration : 32mn 24s
    Bit rate mode : Constant
    Bit rate : 384 Kbps
    Channel(s) : 6 channels
    Channel positions : Front: L C R, Side: L R, LFE
    Sampling rate : 48.0 KHz
    Bit depth : 16 bits
    Compression mode : Lossy
    Stream size : 89.0 MiB (9%)

    Audio #2
    ID : 189 (0xBD)-130 (0x82)
    Format : AC-3
    Format/Info : Audio Coding 3
    Mode extension : CM (complete main)
    Format settings, Endianness : Big
    Muxing mode : DVD-Video
    Duration : 32mn 24s
    Bit rate mode : Constant
    Bit rate : 384 Kbps
    Channel(s) : 6 channels
    Channel positions : Front: L C R, Side: L R, LFE
    Sampling rate : 48.0 KHz
    Bit depth : 16 bits
    Compression mode : Lossy
    Stream size : 89.0 MiB (9%)

    Audio #3
    ID : 189 (0xBD)-137 (0x89)
    Format : DTS
    Format/Info : Digital Theater Systems
    Mode : 16
    Format settings, Endianness : Big
    Muxing mode : DVD-Video
    Duration : 32mn 24s
    Bit rate mode : Constant
    Bit rate : 755 Kbps
    Channel(s) : 6 channels
    Channel positions : Front: L C R, Side: L R, LFE
    Sampling rate : 48.0 KHz
    Bit depth : 24 bits
    Compression mode : Lossy
    Stream size : 175 MiB (17%)

    Text
    ID : 189 (0xBD)-32 (0x20)
    Format : RLE
    Format/Info : Run-length encoding
    Muxing mode : DVD-Video

    Menu

    Скриншоты

    Залил: carisha
    Размер: 4.37 GB (4687626240 Bytes)
    загрузка...
    Рейтинг →
     (голосов: 1, оценка 3/5, голосовать можно 1 раз )

    Другие торренты по теме:

  • Город грехов / Sin city (2005) BDrip 720p от R.G. 48 seconds от zlofenix
  • OST - Город грехов / Sin City (2005) MP3
  • Город грехов / Sin City (2005) HDRip-AVC | D
  • Город грехов / Sin City (2005) BDRip 720p от IIIKOJIO3ABP | GER Transfer скачать через торрент бесплатно
  • Город грехов 2 WEBDLRip (2014) скачать через торрент бесплатно
  • Город грехов / Sin City (2005) BDRip от HQCLUB скачать через торрент бесплатно
  • Город грехов 2: Женщина, ради которой стоит убивать / Sin City: A Dame to Kill For скачать через торрент бесплатно
  • Город грехов 2: Женщина, ради которой стоит убивать / Sin City: A Dame to Kill For (2014) CAMRip скачать через торрент бесплатно


    • Комментарии (0):

      Информация

      Информация

        Посетители, находящиеся в группе Гости, не могут оставлять комментарии в данной новости.

        ↓ Меню



        ↓ Опрос

        А Вы добавили сайт в закладки?
        Да
        Не


        Top 10 за месяц (Фильмы)