.
Авторизация | Регистрация
» » Под куполом / Under the Dome (2013) WEB-DL HD 1080p, 720p | LostFilm | Apple TV, New iPad торрент скачать бесплатно




    Под куполом / Under the Dome (2013) WEB-DL HD 1080p, 720p | LostFilm | Apple TV, New iPad торрент скачать бесплатно

    Опубликовал: Админ | Дата: 27-02-2015, 11:09 | Просмотров: 441

    Под куполом / Under the Dome
    They are all trapped inside.


    Год выпуска: 2013
    Страна: США
    Жанр: Horror, Sci-Fi
    Жанр iTunes: Drama
    Продолжительность: ~ 0:45:00
    Перевод: Профессиональный (многоголосый, закадровый) - Lostfilm
    Видео:
    1080p - H.264, ~5000 kbps avg, 1920 x 1080 (16:9), 23.976 fps
    720p - H.264, ~4000 kbps avg, 1280 x 720 (16:9), 23.976 fps
    Аудио:
    АAC 2.0 160 kbps - Профессиональный (многоголосый, закадровый) - Lostfilm
    АAC 2.0 160 kbps - Английский - Оригинал
    АС3 5.1 384 kbps - Профессиональный (многоголосый, закадровый) - Lostfilm
    АС3 5.1 384 kbps - Английский - Оригинал
    Cубтитры:
    3GPP Text - Русский
    3GPP Text - АнглийскийСоздатели и актеры

    Режиссёр:Джек БендерСценарий:Стивен Кинг, Брайан К. ВонПродюсер:Агата УорренВ ролях:Майк Фогель, Колин Форд, Аиша Хиндс, Александр Кох, Рашель Лефевр, Натали Мартинез, Дин Норрис, Джолин Парди, Бриттани Робертсон, Николас СтронгОписание :Обычным, пригожим осенним днем, город Честерс Миллз, штат Мэн, был внезапно отрезан от остального мира невидимым силовым барьером. Самолеты врезаются в купол и падают, пылая, с небес; садовнику отрезает силовым полем руку; люди, выехавшие в соседний город по делам, не могут вернуться к своим близким; автомобили взрываются от столкновения с куполом. Никто не понимает, что это за барьер, откуда он взялся и исчезнет ли он.

    Дейл Барбара, ветеран конфликта в Ираке, а ныне повар, обнаруживает себя в команде с несколькими отважными жителями — Джулией Шамвей, владелицей городской газеты, помощником врача, женщиной и тремя храбрыми детьми. Против них выступает Большой Джим Ренни — местный политический деятель, который для удержания власти не остановится ни перед чем, даже перед убийством, а также его сын со своим личным скелетом в шкафу. Но главный их противник — сам Купол…
    Under the Dome, Season 1

    01. Пилот (Pilot).
    02. Пожар (The Fire).
    03. Облава (Manhunt).
    04. Эпидемия (Outbreak).
    05. Огонь по своим (Blue on Blue).
    06. Бесконечная жажда (The Endless Thirst).
    07. Неидеальные круги (Imperfect Circles).
    08. Кровь не вода (Thicker Than Water).
    09. Четвёртая рука (The Fourth Hand).
    10. Да начнутся игры (Let the Games Begin).
    11. Помянешь дьявола.. (Speak of the Devil).
    12. Неотложные обстоятельства (Exigent Circumstances).
    13. Занавес (Curtains).

    Технические данные сериала:
    iTunes MetaTag S01E01:

    Sort Album: Under the Dome, Season 1
    iTunes Country: 143441
    XID: cbs:vendor_id:UNDERTHEDOME_101_HD
    genreID: 4008
    playlistID: 662388070
    contentID: 666032612
    Copyright: © 2013 CBS Corp. All Rights Reserved.
    Rating: 13
    Long Deion: When the residents of Chester;s Mill find themselves trapped under a massive transparent dome with no way out, they struggle to survive as resources rapidly dwindle and and panic quickly escalates.
    Deion: When the residents of Chester;s Mill find themselves trapped under a massive transparent dome with no way out, they struggle to survive as resources rapidly dwindle and and panic quickly escalates.
    TV Season: 1
    TV Episode ID: 101
    TV Network: CBS
    TV Episode #: 1
    TV Show: Under the Dome
    Disk #: 1/1
    Track #: 1/0
    Release Date: 2013-06-24T07:00:00Z
    Genre: Drama
    Album: Under the Dome
    Album Artist: Under the Dome
    Artist: Under the Dome
    Name: Pilot
    MediaInfo S01E01 720p:

    General
    Complete name : /Volumes/itunes/media/TV Shows/Under the Dome/Season 1/01 Pilot (HD).m4v
    Format : MPEG-4
    Format profile : Apple audio with iTunes info
    Codec ID : M4A
    File size : 1.49 GiB
    Duration : 42mn 47s
    Overall bit rate : 4 973 Kbps
    Movie name : Pilot
    Album : Under the Dome
    Album/Performer : Under the Dome
    Part/Position : 1
    Part/Total : 1
    Track name/Position : 1
    Track name/Total : 0
    Performer : Under the Dome
    Genre : Drama
    Recorded date : UTC 2013-06-24 07:00:00
    Encoded date : UTC 2013-06-27 05:34:30
    Tagged date : UTC 2013-06-28 06:40:19
    Copyright : ? 2013 CBS Corp. All Rights Reserved.
    Cover : Yes
    tvsh : Under the Dome
    tvnn : CBS
    tven : 101
    tvsn : 1
    tves : 1
    soal : Under the Dome, Season 1
    desc : When the residents of Chester;s Mill find themselves trapped under a massive transparent dome with no way out, they struggle to survive as resources rapidly dwindle and and panic quickly escalates.
    ldes : When the residents of Chester;s Mill find themselves trapped under a massive transparent dome with no way out, they struggle to survive as resources rapidly dwindle and and panic quickly escalates.
    hdvd : 1
    stik : 10
    rtng : 0
    sfID : 143441
    cnID : 666032612
    plID : 662388070
    geID : 4008
    xid : cbs:vendor_id:UNDERTHEDOME_101_HD
    iTunEXTC : us-tv|TV-14|500|

    Video
    ID : 1
    Format : AVC
    Format/Info : Advanced Video Codec
    Format profile : High@L3.1
    Format settings, CABAC : No
    Format settings, ReFrames : 2 frames
    Format settings, GOP : M=2, N=24
    Codec ID : avc1
    Codec ID/Info : Advanced Video Coding
    Duration : 42mn 47s
    Bit rate mode : Variable
    Bit rate : 3 888 Kbps
    Width : 1 280 pixels
    Height : 720 pixels
    Display aspect ratio : 16:9
    Frame rate mode : Variable
    Frame rate : 23.976 fps
    Minimum frame rate : 23.810 fps
    Maximum frame rate : 24.390 fps
    Color space : YUV
    Chroma subsampling : 4:2:0
    Bit depth : 8 bits
    Scan type : Progressive
    Bits/(Pixel*Frame) : 0.176
    Stream size : 1.16 GiB (78%)
    Language : English
    Encoded date : UTC 2013-06-28 05:39:32
    Tagged date : UTC 2013-06-28 05:41:30
    Color primaries : BT.709-5, BT.1361, IEC 61966-2-4, SMPTE RP177
    Transfer characteristics : BT.709-5, BT.1361
    Matrix coefficients : BT.709-5, BT.1361, IEC 61966-2-4 709, SMPTE RP177

    Audio #1
    ID : 2
    Format : AAC
    Format/Info : Advanced Audio Codec
    Format profile : LC
    Codec ID : 40
    Duration : 42mn 47s
    Bit rate mode : Variable
    Bit rate : 157 Kbps
    Maximum bit rate : 248 Kbps
    Channel(s) : 2 channels
    Channel positions : Front: L R
    Sampling rate : 48.0 KHz
    Compression mode : Lossy
    Stream size : 48.0 MiB (3%)
    Language : Russian
    Encoded date : UTC 2013-06-27 05:34:30
    Tagged date : UTC 2013-06-27 05:34:32

    Audio #2
    ID : 3
    Format : AAC
    Format/Info : Advanced Audio Codec
    Format profile : LC
    Codec ID : 40
    Duration : 42mn 47s
    Bit rate mode : Variable
    Bit rate : 152 Kbps
    Maximum bit rate : 231 Kbps
    Channel(s) : 2 channels
    Channel positions : Front: L R
    Sampling rate : 48.0 KHz
    Compression mode : Lossy
    Stream size : 46.4 MiB (3%)
    Language : English
    Encoded date : UTC 2013-06-28 05:39:32
    Tagged date : UTC 2013-06-28 05:41:30

    Audio #3
    ID : 4
    Format : AC-3
    Format/Info : Audio Coding 3
    Mode extension : CM (complete main)
    Codec ID : ac-3
    Duration : 42mn 47s
    Bit rate mode : Constant
    Bit rate : 384 Kbps
    Channel(s) : 6 channels
    Channel positions : Front: L C R, Side: L R, LFE
    Sampling rate : 48.0 KHz
    Bit depth : 16 bits
    Compression mode : Lossy
    Stream size : 118 MiB (8%)
    Language : Russian
    Encoded date : UTC 2013-06-28 05:39:32
    Tagged date : UTC 2013-06-28 05:41:30

    Audio #4
    ID : 5
    Format : AC-3
    Format/Info : Audio Coding 3
    Mode extension : CM (complete main)
    Codec ID : ac-3
    Duration : 42mn 47s
    Bit rate mode : Constant
    Bit rate : 384 Kbps
    Channel(s) : 6 channels
    Channel positions : Front: L C R, Side: L R, LFE
    Sampling rate : 48.0 KHz
    Bit depth : 16 bits
    Compression mode : Lossy
    Stream size : 118 MiB (8%)
    Language : English
    Encoded date : UTC 2013-06-28 05:39:32
    Tagged date : UTC 2013-06-28 05:41:30

    Text #1
    ID : 6
    Format : Timed text
    Muxing mode : sbtl
    Codec ID : tx3g
    Duration : 42mn 30s
    Bit rate mode : Variable
    Bit rate : 107 bps
    Stream size : 33.4 KiB (0%)
    Language : Russian
    Encoded date : UTC 2013-06-28 05:39:32
    Tagged date : UTC 2013-06-28 05:41:30

    Text #2
    ID : 7
    Format : Timed text
    Muxing mode : sbtl
    Codec ID : tx3g
    Duration : 42mn 20s
    Bit rate mode : Variable
    Bit rate : 75 bps
    Stream size : 23.3 KiB (0%)
    Language : English
    Encoded date : UTC 2013-06-28 05:39:32
    Tagged date : UTC 2013-06-28 05:41:30
    MediaInfo S01E01 1080p:

    General
    Complete name : /Volumes/itunes/media/TV Shows/Under the Dome/Season 1/01 Pilot (1080p HD).m4v
    Format : MPEG-4
    Format profile : Apple audio with iTunes info
    Codec ID : M4A
    File size : 1.80 GiB
    Duration : 42mn 47s
    Overall bit rate : 6 030 Kbps
    Movie name : Pilot
    Album : Under the Dome
    Album/Performer : Under the Dome
    Part/Position : 1
    Part/Total : 1
    Track name/Position : 1
    Track name/Total : 0
    Performer : Under the Dome
    Genre : Drama
    Recorded date : UTC 2013-06-24 07:00:00
    Encoded date : UTC 2013-06-27 05:34:30
    Tagged date : UTC 2013-06-28 06:42:18
    Copyright : ? 2013 CBS Corp. All Rights Reserved.
    Cover : Yes
    tvsh : Under the Dome
    tvnn : CBS
    tven : 101
    tvsn : 1
    tves : 1
    soal : Under the Dome, Season 1
    desc : When the residents of Chester;s Mill find themselves trapped under a massive transparent dome with no way out, they struggle to survive as resources rapidly dwindle and and panic quickly escalates.
    ldes : When the residents of Chester;s Mill find themselves trapped under a massive transparent dome with no way out, they struggle to survive as resources rapidly dwindle and and panic quickly escalates.
    hdvd : 2
    stik : 10
    rtng : 0
    sfID : 143441
    cnID : 666032612
    plID : 662388070
    geID : 4008
    xid : cbs:vendor_id:UNDERTHEDOME_101_HD
    iTunEXTC : us-tv|TV-14|500|

    Video
    ID : 1
    Format : AVC
    Format/Info : Advanced Video Codec
    Format profile : High@L4.0
    Format settings, CABAC : Yes
    Format settings, ReFrames : 4 frames
    Format settings, GOP : M=2, N=24
    Codec ID : avc1
    Codec ID/Info : Advanced Video Coding
    Duration : 42mn 47s
    Bit rate mode : Variable
    Bit rate : 4 945 Kbps
    Width : 1 920 pixels
    Height : 1 080 pixels
    Display aspect ratio : 16:9
    Frame rate mode : Variable
    Frame rate : 23.976 fps
    Minimum frame rate : 23.810 fps
    Maximum frame rate : 24.390 fps
    Color space : YUV
    Chroma subsampling : 4:2:0
    Bit depth : 8 bits
    Scan type : Progressive
    Bits/(Pixel*Frame) : 0.099
    Stream size : 1.48 GiB (82%)
    Language : English
    Encoded date : UTC 2013-06-28 05:37:19
    Tagged date : UTC 2013-06-28 05:39:31
    Color primaries : BT.709-5, BT.1361, IEC 61966-2-4, SMPTE RP177
    Transfer characteristics : BT.709-5, BT.1361
    Matrix coefficients : BT.709-5, BT.1361, IEC 61966-2-4 709, SMPTE RP177

    Audio #1
    ID : 2
    Format : AAC
    Format/Info : Advanced Audio Codec
    Format profile : LC
    Codec ID : 40
    Duration : 42mn 47s
    Bit rate mode : Variable
    Bit rate : 157 Kbps
    Maximum bit rate : 248 Kbps
    Channel(s) : 2 channels
    Channel positions : Front: L R
    Sampling rate : 48.0 KHz
    Compression mode : Lossy
    Stream size : 48.0 MiB (3%)
    Language : Russian
    Encoded date : UTC 2013-06-27 05:34:30
    Tagged date : UTC 2013-06-27 05:34:32

    Audio #2
    ID : 3
    Format : AAC
    Format/Info : Advanced Audio Codec
    Format profile : LC
    Codec ID : 40
    Duration : 42mn 47s
    Bit rate mode : Variable
    Bit rate : 152 Kbps
    Maximum bit rate : 231 Kbps
    Channel(s) : 2 channels
    Channel positions : Front: L R
    Sampling rate : 48.0 KHz
    Compression mode : Lossy
    Stream size : 46.4 MiB (3%)
    Language : English
    Encoded date : UTC 2013-06-28 05:37:19
    Tagged date : UTC 2013-06-28 05:39:31

    Audio #3
    ID : 4
    Format : AC-3
    Format/Info : Audio Coding 3
    Mode extension : CM (complete main)
    Codec ID : ac-3
    Duration : 42mn 47s
    Bit rate mode : Constant
    Bit rate : 384 Kbps
    Channel(s) : 6 channels
    Channel positions : Front: L C R, Side: L R, LFE
    Sampling rate : 48.0 KHz
    Bit depth : 16 bits
    Compression mode : Lossy
    Stream size : 118 MiB (6%)
    Language : Russian
    Encoded date : UTC 2013-06-28 05:37:19
    Tagged date : UTC 2013-06-28 05:39:31

    Audio #4
    ID : 5
    Format : AC-3
    Format/Info : Audio Coding 3
    Mode extension : CM (complete main)
    Codec ID : ac-3
    Duration : 42mn 47s
    Bit rate mode : Constant
    Bit rate : 384 Kbps
    Channel(s) : 6 channels
    Channel positions : Front: L C R, Side: L R, LFE
    Sampling rate : 48.0 KHz
    Bit depth : 16 bits
    Compression mode : Lossy
    Stream size : 118 MiB (6%)
    Language : English
    Encoded date : UTC 2013-06-28 05:37:19
    Tagged date : UTC 2013-06-28 05:39:31

    Text #1
    ID : 6
    Format : Timed text
    Muxing mode : sbtl
    Codec ID : tx3g
    Duration : 42mn 30s
    Bit rate mode : Variable
    Bit rate : 107 bps
    Stream size : 33.4 KiB (0%)
    Language : Russian
    Encoded date : UTC 2013-06-28 05:37:19
    Tagged date : UTC 2013-06-28 05:39:31

    Text #2
    ID : 7
    Format : Timed text
    Muxing mode : sbtl
    Codec ID : tx3g
    Duration : 42mn 20s
    Bit rate mode : Variable
    Bit rate : 75 bps
    Stream size : 23.3 KiB (0%)
    Language : English
    Encoded date : UTC 2013-06-28 05:37:19
    Tagged date : UTC 2013-06-28 05:39:31
    Скриншоты 720p:


    Скриншоты: 1080p




    Релиз подготовлен специально для просмотра на Apple TV, iPad.
    Пользователям Windows рекомендуется просматривать в VLC.
    Размер: 42.93 GB (46091222557 Bytes)
    загрузка...
    Рейтинг →
     (голосов: 1, оценка 5/5, голосовать можно 1 раз )

    Другие торренты по теме:



      Комментарии (0):

      Информация

      Информация

        Посетители, находящиеся в группе Гости, не могут оставлять комментарии в данной новости.

        ↓ Меню



        ↓ Опрос

        А Вы добавили сайт в закладки?
        Да
        Не


        Top 10 за неделю (Фильмы)