.
Авторизация | Регистрация
» » Под куполом / Under the Dome (2013) WEB-DLRip-AVC l LostFilm скачать бесплатно через торрент




    Под куполом / Under the Dome (2013) WEB-DLRip-AVC l LostFilm скачать бесплатно через торрент

    Опубликовал: Админ | Дата: 27-02-2015, 11:09 | Просмотров: 281



    Название: Под куполом
    Оригинальное название: Under the Dome
    Год выпуска: 2013
    Жанр: Мистический триллер, научная фантастика, экранизация
    Режиссер: США, Amblin Television, CBS Television Studios
    В ролях: Майк Фогель, Натали Мартинез, Бриттани Робертсон, Александр Кох, Колин Форд, Николас Стронг, Рашель Лефевр, Дин Норрис, Маккензи Линтц, Аиша Хиндс, Джолин Парди, Леон Риппи, Нед Беллами, Джефф Фэйи, Мэр Уиннингхэм, Саманта Мэтис, Дэйл Рауль

    Описание: Обычным погожим осенним днем город Честерс Милл, штат Мэн, оказывается внезапно отрезанным от остального мира невидимым барьером. В купол врезается самолет. Загадочное силовое поле не щадит ни постройки, ни автомобили, ни животных, ни людей. Выехавшие в соседний город по делам не могут вернуться к своим близким. Никто не понимает, что это за барьер, откуда он взялся и исчезнет ли. Дейл Барбара, ветеран войны в Ираке, а ныне повар, теперь в одной команде с несколькими отважными жителями — Джулией Шамвей, владелицей городской газеты, помощником врача, женщиной и тремя храбрыми детьми. Против них выступает Большой Джим Ренни — местный политический деятель, который для удержания власти не остановится ни перед чем, даже перед убийством, а также его сын со своим личным скелетом в шкафу. Но главный их противник — сам Купол… Под Куполом (Under the Dome) — роман Стивена Кинга, который опубликован в США 10 ноября 2009 года. Роман является переработанной идеей, с которой Кинг работал уже дважды, в конце 1970-х годов и в начале 1980-х — изначально под названием Под Куполом, а потом Каннибалы (The Cannibals). Оба раза автор забрасывал работу, возвратившись к этому материалу лишь во второй половине 2000-х годов.

    Выпущено: США, Amblin Television, CBS Television Studios
    Продолжительность: 13 x ~ 00:43:00
    Перевод: Профессиональный многоголосый - Lostfilm



    Качество: WEB-DLRip-AVC
    Видео: MPEG-4 AVC, ~ 1985 Кбит/с, 1024x576
    Аудио rus: АС3, 2 ch, 384 Кбит/с

    Семпл

    Релиз
    • tahiy

    Дата релиза: 19.09.2013


    Список серий
    1.Пилот
    2.Пожар
    3.Преследование
    4.Вспышка
    5.Удар по своим
    6.Бесконечная жажда
    7.Несовершенные круги
    8.Кровь не водица
    9.Четвёртая рука
    10.Да начнутся игры!
    11.Помяни чёрта
    12.Чрезвычайные обстоятельства
    13.Занавес


    Инфо
    Полное имя : D:Под куполом1Under.the.Dome.s01e01.AVC.tahiy.mkv
    Формат : Matroska
    Версия формата : Version 4 / Version 2
    Размер файла : 724 Мбайт
    Продолжительность : 42 м.
    Общий поток : 2357 Кбит/сек
    Название фильма : Под куполом / Under the Dome / 2013 - = Rip by tahiy = -
    Дата кодирования : UTC 2013-09-19 17:27:23
    Программа кодирования : mkvmerge v6.3.0 (;You can;t stop me!;) built on Jul 19 2013 16:27:38
    Библиотека кодирования : libebml v1.3.0 libmatroska v1.4.1

    Видео
    Идентификатор : 1
    Формат : AVC
    Формат/Информация : Advanced Video Codec
    Профиль формата : High@L4.1
    Параметр CABAC формата : Да
    Параметр ReFrames формата : 8 кадров
    Идентификатор кодека : V_MPEG4/ISO/AVC
    Продолжительность : 42 м.
    Битрейт : 1971 Кбит/сек
    Ширина : 1024 пикселя
    Высота : 576 пикселей
    Соотношение сторон : 16:9
    Режим частоты кадров : Постоянный
    Частота кадров : 23,976 кадра/сек
    Цветовое пространство : YUV
    Субдискретизация насыщенности : 4:2:0
    Битовая глубина : 8 бит
    Тип развёртки : Прогрессивная
    Бит/(Пиксели*Кадры) : 0.139
    Размер потока : 592 Мбайт (82%)
    Заголовок : Под куполом / Under the Dome / 2013 - = Rip by tahiy = -
    Библиотека кодирования : x264 core 130 r2273 b3065e6
    Настройки программы : cabac=1 / ref=8 / deblock=1:-2:-2 / analyse=0x3:0x113 / me=umh / subme=10 / psy=1 / psy_rd=1.00:0.20 / mixed_ref=1 / me_range=32 / chroma_me=1 / trellis=2 / 8x8dct=1 / cqm=0 / deadzone=21,11 / fast_pskip=0 / chroma_qp_offset=-3 / threads=3 / lookahead_threads=1 / sliced_threads=0 / nr=0 / decimate=0 / interlaced=0 / bluray_compat=0 / constrained_intra=0 / bframes=10 / b_pyramid=2 / b_adapt=2 / b_bias=0 / direct=3 / weightb=1 / open_gop=0 / weightp=2 / keyint=240 / keyint_min=23 / scenecut=40 / intra_refresh=0 / rc_lookahead=40 / rc=2pass / mbtree=0 / bitrate=1971 / ratetol=1.0 / qcomp=0.60 / qpmin=0 / qpmax=69 / qpstep=4 / cplxblur=20.0 / qblur=0.5 / vbv_maxrate=50000 / vbv_bufsize=62500 / nal_hrd=none / ip_ratio=1.40 / pb_ratio=1.30 / aq=1:1.00
    Язык : English
    Default : Да
    Forced : Нет

    Аудио
    Идентификатор : 2
    Формат : AC-3
    Формат/Информация : Audio Coding 3
    Расширение режима : CM (complete main)
    Параметр Endianness формата : Big
    Идентификатор кодека : A_AC3
    Продолжительность : 42 м.
    Вид битрейта : Постоянный
    Битрейт : 384 Кбит/сек
    Каналы : 2 канала
    Расположение каналов : Front: L R
    Частота : 48,0 КГц
    Битовая глубина : 16 бит
    Метод сжатия : С потерями
    Размер потока : 118 Мбайт (16%)
    Заголовок : Lostfilm
    Язык : Russian
    Default : Да
    Forced : Нет


    Скриншоты



    Внимание! Раздача ведётся путём добавления новых серий!

    Внимание! Раздача ведётся путём добавления новых серий; при каждом добавлении создfётся новый торрент. Чтобы начать докачку новой серии, пользователям необходимо сделать следующее: (1) остановить скачивание, (2) удалить старый торрент у себя из клиента (старые серии удалять не надо), (3) скачать новый торрент и запустить его у себя в клиенте вместо старого, при этом указать клиенту путь в старую папку куда и должно происходить скачивание новых серий.

    Ваш клиент при этом должен произвести хеширование (проверку) старой папки (если не производит сам - помогите ему сделать это), и будет докачивать только те серии которых у вас ещё нет. Старые серии при этом не удаляются, а продолжают раздаваться!

    Eсли вы уже удалили старые серии, то предотвратить повторную закачку старых серий можно, отжав галочку в соответсвующих местах при запуске нового торрента.

    Размер: 9.05 GB (9712030448 Bytes)
    загрузка...
    Рейтинг →
     (голосов: 1, оценка 5/5, голосовать можно 1 раз )

    Другие торренты по теме:



      Комментарии (0):

      Информация

      Информация

        Посетители, находящиеся в группе Гости, не могут оставлять комментарии в данной новости.

        ↓ Меню



        ↓ Опрос

        А Вы добавили сайт в закладки?
        Да
        Не


        Top 10 за неделю (Фильмы)