.
Авторизация | Регистрация
Хочешь лучшие торренты? Добавь свой email!
Добавить
» » Огни святого Эльма / St. Elmos fire (1985) BDRip | D, P2, A скачать через торрент бесплатно




    Огни святого Эльма / St. Elmos fire (1985) BDRip | D, P2, A скачать через торрент бесплатно

    Опубликовал: Админ | Дата: 27-02-2015, 11:09 | Просмотров: 340



    Название: Огни святого Эльма
    Оригинальное название: St. Elmo;s fire
    Год выпуска: 1985
    Жанр: Драма, мелодрама
    Выпущено: США, Columbia Pictures Corporation, Delphi IV Productions
    Режиссер: Джоэл Шумахер
    В ролях: Эмилио Эстевез, Роб Лоу, Деми Мур, Эндрю МакКарти, Энди МакДауэлл, Джадд Нельсон, Элли Шиди, Мэр Уиннингэм, Мартин Болсам, Джойс Ван Паттен, Дженни Райт, Блейк Кларк, Джон Катлер, Мэттью Лоранс, Джина Хехт, Анна Мария Хорсфорд, Джеймс Керрингтон, Дон Мосс, Уип Хабли, Джим Тернер, Марио Мачадо, Джуди Кейн, Сет Джаффе, Джеффри Ламперт, Элизабет Арлен, Нора Мирбаум, Скотт Неме, Бернадетт Биркетт, Винсент Дж. Айзек, Дин Р. Миллер, Синди Дитрих, Дэвид Лэйн Бэйкер, Дэниэл Иден, Лорел Пейдж, Дж.Т. Соломон

    О фильме: Ностальгический взгляд на школьную дружбу молодых людей, шагнувших в большой мир. Их отношения тесно и причудливо переплетены. Огонёк Святого Эльма — название бара, где встречаются герои фильма.

    Качество: BDRip
    Размер: 1.99 ГБ
    Продолжительность: 01:48:12

    Видео: XviD, 1601 Кбит/с, 720x304
    Аудио: русский, 48 kHz, AC3, 2 ch, 192 kbps avg, Дублированный, Варус видео

    Внешние файлы
    Аудио: русский, 48 kHz, AC3, 2 ch, 192 kbps avg, Профессиональный двухголосый
    Аудио: русский, 48 kHz, AC3, 2 ch, 192 kbps avg, Авторский, Пётр Карцев
    Аудио: английский, 48 kHz, AC3, 6 ch, 448 kbps avg, Оригинал
    Субтитры: английские

    Сравнение с исходником



    Из отзывов...
    justman

    Ну наконец-то я нашёл этот фильм, который смотрел ещё подростком. Смотрел этот фильм два раза, тогда и сейчас, поставив 10 из 10 и тогда, и сейчас, соответственно с разными впечатлениями для себя. Я не буду описывать сюжет, скажу только - надежда и ностальгия. В юности я мечтал именно о такой студенческой жизни, а сейчас очень скучаю по ней. Герой Билли — главный персонаж для меня в этом фильме. Такие же скитания, вопрос что делать?, чем заняться?, и великолепный ответ в самом фильме — нельзя жить прошлым и возвращаться к прошлому. Уверен, каждый в каждом герое увидел себя в каком-то промежутке своей жизни. Кирби с его первой любовью, Кевин с его показной безразличностью, всё в этом фильме для меня является пережитым, переживаемым и, надеюсь, переживаемым в дальнейшем. Такие фильмы снимаются редко, по ТВ идут один раз, но именно за такие фильмы я поклоняюсь кинематографу.

    10 из 10

    Кинопоиск
    MediaInfo
    Общее
    Полное имя : E:VideoOgni.svjatogo.Elma.1985.XviD.BDRipOgni.svjatogo.Elma.1985.AVO.rus.П.Карцев.ac3
    Формат : AC-3
    Формат/Информация : Audio Coding 3
    Размер файла : 149 Мбайт
    Продолжительность : 1 ч. 48 м.
    Режим общего битрейта : Постоянный
    Общий поток : 192 Кбит/сек

    Аудио
    Формат : AC-3
    Формат/Информация : Audio Coding 3
    Расширение режима : CM (complete main)
    Параметр Endianness формата : Big
    Продолжительность : 1 ч. 48 м.
    Вид битрейта : Постоянный
    Битрейт : 192 Кбит/сек
    Каналы : 2 канала
    Расположение каналов : Front: L R
    Частота : 48,0 КГц
    Битовая глубина : 16 бит
    Метод сжатия : С потерями
    Размер потока : 149 Мбайт (100%)

    Общее
    Полное имя : E:VideoOgni.svjatogo.Elma.1985.XviD.BDRipOgni.svjatogo.Elma.1985.DVO.rus.ac3
    Формат : AC-3
    Формат/Информация : Audio Coding 3
    Размер файла : 149 Мбайт
    Продолжительность : 1 ч. 48 м.
    Режим общего битрейта : Постоянный
    Общий поток : 192 Кбит/сек

    Аудио
    Формат : AC-3
    Формат/Информация : Audio Coding 3
    Расширение режима : CM (complete main)
    Параметр Endianness формата : Big
    Продолжительность : 1 ч. 48 м.
    Вид битрейта : Постоянный
    Битрейт : 192 Кбит/сек
    Каналы : 2 канала
    Расположение каналов : Front: L R
    Частота : 48,0 КГц
    Битовая глубина : 16 бит
    Метод сжатия : С потерями
    Размер потока : 149 Мбайт (100%)

    Общее
    Полное имя : E:VideoOgni.svjatogo.Elma.1985.XviD.BDRipOgni.svjatogo.Elma.1985.eng.srt
    Формат : SubRip
    Размер файла : 87,8 Кбайт

    Текст
    Формат : SubRip
    Метод сжатия : Без потерь

    Общее
    Полное имя : E:VideoOgni.svjatogo.Elma.1985.XviD.BDRipOgni.svjatogo.Elma.1985.Original.eng.ac3
    Формат : AC-3
    Формат/Информация : Audio Coding 3
    Размер файла : 347 Мбайт
    Продолжительность : 1 ч. 48 м.
    Режим общего битрейта : Постоянный
    Общий поток : 448 Кбит/сек

    Аудио
    Формат : AC-3
    Формат/Информация : Audio Coding 3
    Расширение режима : CM (complete main)
    Параметр Endianness формата : Big
    Продолжительность : 1 ч. 48 м.
    Вид битрейта : Постоянный
    Битрейт : 448 Кбит/сек
    Каналы : 6 каналов
    Расположение каналов : Front: L C R, Side: L R, LFE
    Частота : 48,0 КГц
    Битовая глубина : 16 бит
    Метод сжатия : С потерями
    Размер потока : 347 Мбайт (100%)

    Общее
    Полное имя : E:VideoOgni.svjatogo.Elma.1985.XviD.BDRipOgni.svjatogo.Elma.1985.XviD.BDRip.avi
    Формат : AVI
    Формат/Информация : Audio Video Interleave
    Размер файла : 1,36 Гбайт
    Продолжительность : 1 ч. 48 м.
    Общий поток : 1802 Кбит/сек
    Программа кодирования : VirtualDubMod 1.5.10.2 (build 2540/release)
    Библиотека кодирования : VirtualDubMod build 2540/release

    Видео
    Идентификатор : 0
    Формат : MPEG-4 Visual
    Профиль формата : Advanced Simple@L5
    Параметр BVOP формата : 1
    Параметр QPel формата : Нет
    Параметр GMC формата : Без точки перехода
    Параметр матрицы формата : Default (H.263)
    Режим смешивания : Сжатый битовый поток
    Идентификатор кодека : XVID
    Идентификатор кодека/Подсказка : XviD
    Продолжительность : 1 ч. 48 м.
    Битрейт : 1601 Кбит/сек
    Ширина : 720 пикселей
    Высота : 304 пикселя
    Соотношение сторон : 2,35:1
    Частота кадров : 23,976 кадра/сек
    Цветовое пространство : YUV
    Субдискретизация насыщенности : 4:2:0
    Битовая глубина : 8 бит
    Тип развёртки : Прогрессивная
    Метод сжатия : С потерями
    Бит/(Пиксели*Кадры) : 0.305
    Размер потока : 1,21 Гбайт (89%)
    Библиотека кодирования : XviD 1.2.1 (UTC 2008-12-04)

    Аудио
    Идентификатор : 1
    Формат : AC-3
    Формат/Информация : Audio Coding 3
    Расширение режима : CM (complete main)
    Параметр Endianness формата : Big
    Идентификатор кодека : 2000
    Продолжительность : 1 ч. 48 м.
    Вид битрейта : Постоянный
    Битрейт : 192 Кбит/сек
    Каналы : 2 канала
    Расположение каналов : Front: L R
    Частота : 48,0 КГц
    Битовая глубина : 16 бит
    Метод сжатия : С потерями
    Размер потока : 149 Мбайт (11%)
    Выравнивание : Разделение по промежуткам
    Продолжительность промежутка : 42 мс. (1,00 видеокадр)
    Время предзагрузки промежутка : 500 мс.

    Скриншоты



    Залил: msltel
    Размер: 1.99 GB (2137909783 Bytes)
    загрузка...
    Рейтинг →
     (голосов: 1, оценка 3/5, голосовать можно 1 раз )

    Другие торренты по теме:



      Комментарии (0):

      Информация

      Информация

        Посетители, находящиеся в группе Гости, не могут оставлять комментарии в данной новости.

        ↓ Меню



        ↓ Опрос

        А Вы добавили сайт в закладки?
        Да
        Не


        Top 10 за месяц (Фильмы)