.
Авторизация | Регистрация
» » Невероятный Халк / The Incredible Hulk (2008) DVD9 | P скачать через торрент бесплатно




    Невероятный Халк / The Incredible Hulk (2008) DVD9 | P скачать через торрент бесплатно

    Опубликовал: Админ | Дата: 27-02-2015, 11:09 | Просмотров: 463



    Информация о фильме
    Название: Невероятный Халк
    Оригинальное название: The Incredible Hulk
    Год выхода: 2008
    Жанр: фантастика, боевик, триллер
    Режиссер: Луи Летерье
    В ролях: Эдвард Нортон, Лив Тайлер, Тим Рот, Уильям Хёрт, Тим Блейк Нельсон, Тай Бурелл, Кристина Кэбот, Питер Менса, Лу Ферриньо, Пол Соулз

    О фильме:
    История доктора Брюса Баннера, который ищет лекарство от своего необычного заболевания, превращающего его во время эмоционального стресса в гигантского зеленого монстра Халка. Находясь в бегах от армии, стремящейся его захватить, Брюс почти находит лекарство, но все старания идут прахом, когда у Халка вдруг появляется новый, невероятно сильный противник.




    Страна: США
    Студия: Marvel Enterprises, Universal Pictures
    Продолжительность: 112 мин. / 01:52
    Перевод: профессиональный (многоголосый, закадровый)

    Файл
    Кодек: MPEG2
    Качество: DVD9
    Видео: PAL 16:9 (720x576) VBR 4954 Kbps, 25.000 fps
    Звук 1: Dolby AC3, 6 ch, 48.0 KHz, 448 Kbps английский
    Звук 2: Dolby AC3, 6 ch, 48.0 KHz, 384 Kbps русский
    Звук 3: DTS 6 ch, 48.0 KHz, 755 Kbps русский
    Субтитры: отсутствуют

    MediaInfo
    General
    Complete name : E:Neveroyatny HalkVIDEO_TSVTS_01_1.VOB
    Format : MPEG-PS
    File size : 1 024 MiB
    Duration : 21mn 27s
    Overall bit rate mode : Variable
    Overall bit rate : 6 674 Kbps

    Video
    ID : 224 (0xE0)
    Format : MPEG Video
    Format version : Version 2
    Format profile : Main@Main
    Format settings, BVOP : No
    Format settings, Matrix : Custom
    Format settings, GOP : Variable
    Duration : 21mn 27s
    Bit rate mode : Variable
    Bit rate : 4 954 Kbps
    Maximum bit rate : 8 538 Kbps
    Width : 720 pixels
    Height : 576 pixels
    Display aspect ratio : 16:9
    Frame rate : 25.000 fps
    Standard : PAL
    Color space : YUV
    Chroma subsampling : 4:2:0
    Bit depth : 8 bits
    Scan type : Interlaced
    Scan order : Top Field First
    Compression mode : Lossy
    Bits/(Pixel*Frame) : 0.478
    Time code of first frame : 00:00:00:00
    Time code source : Group of pictures t_head
    Stream size : 760 MiB (74%)

    Audio #1
    ID : 189 (0xBD)-128 (0x80)
    Format : AC-3
    Format/Info : Audio Coding 3
    Mode extension : CM (complete main)
    Format settings, Endianness : Big
    Muxing mode : DVD-Video
    Duration : 21mn 26s
    Bit rate mode : Constant
    Bit rate : 384 Kbps
    Channel(s) : 6 channels
    Channel positions : Front: L C R, Side: L R, LFE
    Sampling rate : 48.0 KHz
    Bit depth : 16 bits
    Compression mode : Lossy
    Stream size : 58.9 MiB (6%)

    Audio #2
    ID : 189 (0xBD)-130 (0x82)
    Format : AC-3
    Format/Info : Audio Coding 3
    Mode extension : CM (complete main)
    Format settings, Endianness : Big
    Muxing mode : DVD-Video
    Duration : 21mn 26s
    Bit rate mode : Constant
    Bit rate : 448 Kbps
    Channel(s) : 6 channels
    Channel positions : Front: L C R, Side: L R, LFE
    Sampling rate : 48.0 KHz
    Bit depth : 16 bits
    Compression mode : Lossy
    Stream size : 68.7 MiB (7%)

    Audio #3
    ID : 189 (0xBD)-137 (0x89)
    Format : DTS
    Format/Info : Digital Theater Systems
    Mode : 16
    Format settings, Endianness : Big
    Muxing mode : DVD-Video
    Duration : 21mn 26s
    Bit rate mode : Constant
    Bit rate : 755 Kbps
    Channel(s) : 6 channels
    Channel positions : Front: L C R, Side: L R, LFE
    Sampling rate : 48.0 KHz
    Bit depth : 24 bits
    Compression mode : Lossy
    Stream size : 116 MiB (11%)

    Menu

    Скриншоты

    Залил: carisha
    Размер: 5.20 GB (5578668032 Bytes)
    загрузка...
    Рейтинг →
     (голосов: 1, оценка 4/5, голосовать можно 1 раз )

    Другие торренты по теме:

  • Невероятный Халк / The Incredible Hulk (2008) BDRip 1080p от FfClub торрент скачать бесплатно
  • OST - Невероятный Халк / The Incredible Hulk (2008) MP3 торрент скачать бесплатно


    • Комментарии (0):

      Информация

      Информация

        Посетители, находящиеся в группе Гости, не могут оставлять комментарии в данной новости.

        ↓ Меню



        ↓ Опрос

        А Вы добавили сайт в закладки?
        Да
        Не


        Top 10 за неделю (Фильмы)