.
Авторизация | Регистрация
» » Притворись моим парнем / 20 ans decart (2013) BDRip 1080p | iTunes Russia торрент скачать бесплатно




    Притворись моим парнем / 20 ans decart (2013) BDRip 1080p | iTunes Russia торрент скачать бесплатно

    Опубликовал: Админ | Дата: 27-02-2015, 11:09 | Просмотров: 294



    Информация о фильме
    Название: Притворись моим парнем
    Оригинальное название: 20 ans d;?cart
    Год выпуска: 2013
    Жанр: Комедия
    Выпущено: Франция, Echo Films, EuropaCorp, TF1 Films Production
    Режиссер: Давид Моро
    В ролях: Вирджиния Эфира, Пьер Нинэ, Шарль Берлинг, Жиль Коэн, Амели Гленн, Камила Джепи, Микаэль Абитбуль, Камиль Пелисье, Женна Азулай, Луи-До де Ланкесэ

    О фильме: У редактора модного глянцевого журнала Алисы Лантенс безупречный вкус, отличное резюме и репутация железной леди. Но однажды начальство намекает, что возглавлять молодежное издание должен кто-то более смелый и провокативный. Решение приходит неожиданно: по нелепой случайности по миру шоу-бизнеса разносится слух о ее романе с 18-летним студентом. Оказывается, что подмоченная репутация — именно то, что нужно для продвижения по карьерной лестнице! Но куда деваться от парня, который и вправду влюбился?



    Файл
    Качество: BDRip (1080p)
    Видео: MPEG-4 AVC, 8627 Кбит/с, 1920x808
    Аудио: Русский (AC3, 6 ch, 384 Кбит/с), французский (DTS, 6 ch, 1510 Кбит/с)
    Размер: 6.80 ГБ
    Продолжительность: 01:32:43
    Перевод: Дублированный iTunes Russia
    MI
    Pritvoris.moim.parnem.2013.D.BDRip.1080p.mkv
    Format : Matroska
    Format version : Version 4 / Version 2
    File size : 6.80 GiB
    Duration : 1h 32mn
    Overall bit rate : 10.5 Mbps
    Encoded date : UTC 2013-09-23 19:20:42
    Writing application : mkvmerge v6.3.0 (;You can;t stop me!;) built on Jun 28 2013 20:09:41
    Writing library : libebml v1.3.0 libmatroska v1.4.0

    Video
    ID : 1
    Format : AVC
    Format/Info : Advanced Video Codec
    Format profile : High@L4.1
    Format settings, CABAC : Yes
    Format settings, ReFrames : 5 frames
    Codec ID : V_MPEG4/ISO/AVC
    Duration : 1h 32mn
    Bit rate : 8 627 Kbps
    Width : 1 920 pixels
    Height : 808 pixels
    Display aspect ratio : 2.40:1
    Frame rate mode : Constant
    Frame rate : 24.000 fps
    Color space : YUV
    Chroma subsampling : 4:2:0
    Bit depth : 8 bits
    Scan type : Progressive
    Bits/(Pixel*Frame) : 0.232
    Stream size : 5.44 GiB (80%)
    Writing library : x264 core 133 r2334 a3ac64b
    Encoding settings : cabac=1 / ref=5 / deblock=1:0:0 / analyse=0x3:0x113 / me=umh / subme=8 / psy=1 / psy_rd=1.00:0.00 / mixed_ref=1 / me_range=16 / chroma_me=1 / trellis=1 / 8x8dct=1 / cqm=0 / deadzone=21,11 / fast_pskip=1 / chroma_qp_offset=-2 / threads=12 / lookahead_threads=2 / sliced_threads=0 / nr=0 / decimate=1 / interlaced=0 / bluray_compat=0 / constrained_intra=0 / bframes=3 / b_pyramid=2 / b_adapt=2 / b_bias=0 / direct=3 / weightb=1 / open_gop=0 / weightp=2 / keyint=240 / keyint_min=24 / scenecut=40 / intra_refresh=0 / rc_lookahead=50 / rc=2pass / mbtree=1 / bitrate=8627 / ratetol=1.0 / qcomp=0.60 / qpmin=0 / qpmax=69 / qpstep=4 / cplxblur=20.0 / qblur=0.5 / ip_ratio=1.40 / aq=1:1.00
    Language : English
    Default : Yes
    Forced : Yes

    Audio #1
    ID : 2
    Format : AC-3
    Format/Info : Audio Coding 3
    Mode extension : CM (complete main)
    Format settings, Endianness : Big
    Codec ID : A_AC3
    Duration : 1h 32mn
    Bit rate mode : Constant
    Bit rate : 384 Kbps
    Channel(s) : 6 channels
    Channel positions : Front: L C R, Side: L R, LFE
    Sampling rate : 48.0 KHz
    Bit depth : 16 bits
    Compression mode : Lossy
    Stream size : 254 MiB (4%)
    Title : DD 5.1 @ 384 kbps - Dub, iTunes
    Language : Russian
    Default : Yes
    Forced : Yes

    Audio #2
    ID : 3
    Format : DTS
    Format/Info : Digital Theater Systems
    Mode : 16
    Format settings, Endianness : Big
    Codec ID : A_DTS
    Duration : 1h 32mn
    Bit rate mode : Constant
    Bit rate : 1 509 Kbps
    Channel(s) : 6 channels
    Channel positions : Front: L C R, Side: L R, LFE
    Sampling rate : 48.0 KHz
    Bit depth : 24 bits
    Compression mode : Lossy
    Stream size : 1 000 MiB (14%)
    Language : French
    Default : No
    Forced : No

    Menu
    00:00:00.000 : en:00:00:00.000
    00:07:29.625 : en:00:07:29.625
    00:13:56.083 : en:00:13:56.083
    00:21:12.625 : en:00:21:12.625
    00:28:49.917 : en:00:28:49.917
    00:37:18.875 : en:00:37:18.875
    00:45:08.958 : en:00:45:08.958
    00:53:21.583 : en:00:53:21.583
    01:02:53.875 : en:01:02:53.875
    01:11:13.917 : en:01:11:13.917
    01:19:59.000 : en:01:19:59.000
    01:26:44.875 : en:01:26:44.875

    Скриншоты


    Размер: 6.80 GB (7301509860 Bytes)
    загрузка...
    Рейтинг →
     (голосов: 1, оценка 5/5, голосовать можно 1 раз )

    Другие торренты по теме:

  • Притворись моей женой / Just Go with It (2011) BDRip 720p от HQ-ViDEO торрент скачать бесплатно
  • Притворись моим парнем / 20 ans decart (2013) BDRip 720p | Звук с TS торрент скачать бесплатно
  • Притворись моим парнем / 20 ans decart (2013) HDRip | Звук с TS торрент скачать бесплатно
  • Притворись моим парнем / 20 ans decart (2013) BDRip 720p | iTunes Russia торрент скачать бесплатно
  • Притворись моим парнем / 20 ans decart (2013) HDRip от INTERCINEMA | iTunes Russia торрент скачать бесплатно
  • Притворись моим парнем / 20 ans decart (2013) HDRip от Youtracker | iTunes торрент скачать бесплатно
  • Притворись моим парнем / 20 ans decart (2013) Blu-Ray Remux 1080p | D торрент скачать бесплатно
  • Притворись моим парнем / 20 ans decart (2013) BDRip 720p от leonardo 59 Scarabey | iTunes Russia скачать через торрент бесплатно


    • Комментарии (0):

      Информация

      Информация

        Посетители, находящиеся в группе Гости, не могут оставлять комментарии в данной новости.

        ↓ Меню



        ↓ Опрос

        А Вы добавили сайт в закладки?
        Да
        Не


        Top 10 за неделю (Фильмы)