.
Авторизация | Регистрация
» » Рыцарь мертвых / Knight of the Dead (2013) BDRip 1080p | L1 торрент скачать бесплатно




    Рыцарь мертвых / Knight of the Dead (2013) BDRip 1080p | L1 торрент скачать бесплатно

    Опубликовал: Админ | Дата: 27-02-2015, 11:09 | Просмотров: 300



    Название: Рыцарь мертвых
    Оригинальное название: Knight of the Dead
    Год выпуска: 2013
    Жанр: Ужасы, фэнтези, боевик
    Режиссер: Марк Аткинс
    В ролях: Алан Калтон, Джейсон Бистон, Джордж МакКласки, Дилан Джонс, Дэннис Карр, Ли Беннетт, Ниа Энн, Фет Гринвуд, Хань, Эва Морган

    Описание: Участники военных действий постоянно передают из уст в уста странную историю, о том что их армия никогда не проигрывала сражений. Это действительно так, но дело вовсе не в силе и мощи армии, а в неком таинственном явлении, так называемом Рыцаре мертвых. Якобы в особенно опасные моменты он является со своим войском с того света, чтобы помочь солдатам одолеть противника. Так оно и есть, и в этом смогут убедиться наши герои, когда потеряют всякую надежду на победу и уже готовы будут отступить назад. Но им не придется этого делать, ведь их враг будет поражен неведомой силой…

    Выпущено: США, Великобритания, Paradise City Pictures
    Продолжительность: 01:22:10
    Перевод: Любительский одноголосый - den904



    Качество: BDRip 1080p
    Видео: MPEG-4 AVC, 11.1 Мбит/с, 1920x1080
    Аудио rus: АС3, 2 ch, 192 Кбит/с
    Аудио eng: DTS, 6 ch, 1509 Кбит/с

    Семпл

    Инфо
    Kinght.of.the.Dead.2013.Blu.Ray.1080p.Cinemania.сс.mkv
    Format : Matroska
    Format version : Version 4 / Version 2
    File size : 7.52 GiB
    Duration : 1h 22mn
    Overall bit rate : 13.1 Mbps
    Movie name : CINEMANIA.CC
    Encoded date : UTC 2013-09-21 18:36:33
    Writing application : mkvmerge v6.4.1 (;Omega Point;) built on Sep 16 2013 22:05:10
    Writing library : libebml v1.3.0 libmatroska v1.4.1

    Video
    ID : 1
    Format : AVC
    Format/Info : Advanced Video Codec
    Format profile : High@L4.1
    Format settings, CABAC : Yes
    Format settings, ReFrames : 4 frames
    Codec ID : V_MPEG4/ISO/AVC
    Duration : 1h 22mn
    Bit rate : 11.1 Mbps
    Width : 1 920 pixels
    Height : 1 080 pixels
    Display aspect ratio : 16:9
    Frame rate mode : Constant
    Frame rate : 23.976 fps
    Color space : YUV
    Chroma subsampling : 4:2:0
    Bit depth : 8 bits
    Scan type : Progressive
    Bits/(Pixel*Frame) : 0.224
    Stream size : 6.39 GiB (85%)
    Title : CINEMANIA.CC
    Writing library : x264 core 132 r2323 704 51 d571b1c tMod 8-bit@4:2:0 X86_64
    Encoding settings : cabac=1 / ref=4 / deblock=1:-3:-3 / analyse=0x3:0x113 / me=umh / subme=11 / psy=1 / fade_compensate=0.00 / psy_rd=1.02:0.00 / mixed_ref=1 / me_range=32 / chroma_me=1 / trellis=2 / 8x8dct=1 / cqm=0 / deadzone=21,11 / fast_pskip=0 / chroma_qp_offset=-2 / threads=36 / lookahead_threads=6 / sliced_threads=0 / nr=0 / decimate=0 / interlaced=0 / bluray_compat=0 / constrained_intra=0 / fgo=0 / bframes=8 / b_pyramid=2 / b_adapt=2 / b_bias=0 / direct=3 / weightb=1 / open_gop=0 / weightp=2 / keyint=240 / keyint_min=24 / scenecut=40 / intra_refresh=0 / rc_lookahead=240 / rc=crf / mbtree=1 / crf=17.5000 / qcomp=0.70 / qpmin=0 / qpmax=69 / qpstep=4 / ip_ratio=1.20 / aq=4:0.90 / aq-sensitivity=10.00 / aq-factor=1.00:1.00:1.00 / aq2=0 / aq3=0
    Language : English
    Default : Yes
    Forced : No

    Audio #1
    ID : 2
    Format : AC-3
    Format/Info : Audio Coding 3
    Mode extension : CM (complete main)
    Format settings, Endianness : Big
    Codec ID : A_AC3
    Duration : 1h 22mn
    Bit rate mode : Constant
    Bit rate : 192 Kbps
    Channel(s) : 2 channels
    Channel positions : Front: L R
    Sampling rate : 48.0 KHz
    Bit depth : 16 bits
    Compression mode : Lossy
    Stream size : 113 MiB (1%)
    Title : den904
    Language : Russian
    Default : Yes
    Forced : Yes

    Audio #2
    ID : 3
    Format : DTS
    Format/Info : Digital Theater Systems
    Mode : 16
    Format settings, Endianness : Big
    Codec ID : A_DTS
    Duration : 1h 22mn
    Bit rate mode : Constant
    Bit rate : 1 509 Kbps
    Channel(s) : 6 channels
    Channel positions : Front: L C R, Side: L R, LFE
    Sampling rate : 48.0 KHz
    Bit depth : 16 bits
    Compression mode : Lossy
    Stream size : 887 MiB (12%)
    Language : English
    Default : No
    Forced : No
    Скриншоты


    Размер: 7.52 GB (8071476491 Bytes)
    загрузка...
    Рейтинг →
     (голосов: 1, оценка 5/5, голосовать можно 1 раз )

    Другие торренты по теме:

  • Рыцарь мертвых / Knight of the Dead (2013) BDRip | den904 скачать через торрент бесплатно
  • Рыцарь мертвых / Knight of the Dead (2013) BDRip 720p | den904


    • Комментарии (0):

      Информация

      Информация

        Посетители, находящиеся в группе Гости, не могут оставлять комментарии в данной новости.

        ↓ Меню



        ↓ Опрос

        А Вы добавили сайт в закладки?
        Да
        Не


        Top 10 за месяц (Фильмы)