.
Авторизация | Регистрация
» » Последний свидетель / Ostatni wiadek (1970) DVDRip | D торрент скачать бесплатно




    Последний свидетель / Ostatni wiadek (1970) DVDRip | D торрент скачать бесплатно

    Опубликовал: Админ | Дата: 27-02-2015, 11:09 | Просмотров: 422






    Страна: Польша
    Производство: Творческий коллектив НИКЕ
    Жанр: Приключения
    Год выпуска: 1970

    Продолжительность: 01:24:06


    Перевод: Дублированный

    Оригинальная аудиодорожка: Польская

    Cубтитры: Нет


    Режиссер: Ян Батори


    В ролях: Станислав Микульский, Майя Водецка, Артур Млодницкий, Януш Былчинский, Эдмунд Феттинг, Элиаш Куземский, Роман Сыкала, Мариан Войтчак, Войцех Дурьяш, Станислав Нивиньский




    Описание: В конце войны, в горе на территории Польши фашисты спрятали несметные сокровища. Всех узников концлагеря, чей рабский труд был использован в этой секретной операции, расстреляли. Но остался один свидетель… Прошли годы. Збышек работает доктором в городке неподалеку от этой горы и мечтает раpыскать сокровища. В это время в городок прибывает немецкий профессор энтомолог-Шмидт с очаровательной дочкой, в сопровождении своих сотрудников. В одном из них Збышек узнает штурмбанфюрера Гольца…

    Исходник: DVD5 R2

    Тип релиза: DVDRip

    Контейнер: AVI


    Видео: 688x480 (1.43:1), 23.976 fps, XviD ~2078 kbps avg, 0.26 bit/pixel
    Аудио: #1: 48 kHz, AC3 2.0 ~192.00 kbps avg (RUS)
    Аудио: #2: 48 kHz, AC3 2.0 ~192.00 kbps avg (POL)



    MediaInfo
    Общее
    Полное имя : D:1АААПоследний свидетель.avi
    Формат : AVI
    Формат/Информация : Audio Video Interleave
    Размер файла : 1,46 Гбайт
    Продолжительность : 1 ч. 24 м.
    Общий поток : 2477 Кбит/сек
    Программа кодирования : VirtualDubMod 1.5.10.2 (build 2540/release)
    Библиотека кодирования : VirtualDubMod build 2540/release

    Видео
    Идентификатор : 0
    Формат : MPEG-4 Visual
    Профиль формата : Advanced Simple@L5
    Параметр BVOP формата : 2
    Параметр QPel формата : Нет
    Параметр GMC формата : Без точки перехода
    Параметр матрицы формата : Default (MPEG)
    Режим смешивания : Сжатый битовый поток
    Идентификатор кодека : XVID
    Идентификатор кодека/Подсказка : XviD
    Продолжительность : 1 ч. 24 м.
    Битрейт : 2079 Кбит/сек
    Ширина : 688 пикселей
    Высота : 480 пикселей
    Соотношение сторон : 1,433
    Частота кадров : 23,976 кадра/сек
    Цветовое пространство : YUV
    Субдискретизация насыщенности : 4:2:0
    Битовая глубина : 8 бит
    Тип развёртки : Прогрессивная
    Метод сжатия : С потерями
    Бит/(Пиксели*Кадры) : 0.263
    Размер потока : 1,22 Гбайт (84%)
    Библиотека кодирования : XviD 1.2.1 (UTC 2008-12-04)

    Аудио #1
    Идентификатор : 1
    Формат : AC-3
    Формат/Информация : Audio Coding 3
    Расширение режима : CM (complete main)
    Параметр Endianness формата : Big
    Идентификатор кодека : 2000
    Продолжительность : 1 ч. 24 м.
    Вид битрейта : Постоянный
    Битрейт : 192 Кбит/сек
    Каналы : 2 канала
    Расположение каналов : Front: L R
    Частота : 48,0 КГц
    Битовая глубина : 16 бит
    Метод сжатия : С потерями
    Размер потока : 116 Мбайт (8%)
    Выравнивание : Разделение по промежуткам
    Продолжительность промежутка : 42 мс. (1,00 видеокадр)
    Время предзагрузки промежутка : 500 мс.

    Аудио #2
    Идентификатор : 2
    Формат : AC-3
    Формат/Информация : Audio Coding 3
    Расширение режима : CM (complete main)
    Параметр Endianness формата : Big
    Идентификатор кодека : 2000
    Продолжительность : 1 ч. 24 м.
    Вид битрейта : Постоянный
    Битрейт : 192 Кбит/сек
    Каналы : 2 канала
    Расположение каналов : Front: L R
    Частота : 48,0 КГц
    Битовая глубина : 16 бит
    Метод сжатия : С потерями
    Размер потока : 116 Мбайт (8%)
    Выравнивание : Разделение по промежуткам
    Продолжительность промежутка : 42 мс. (1,00 видеокадр)
    Время предзагрузки промежутка : 500 мс.







    Скриншоты




    Релиз группа:

    Автор рипа:
    Залил: YArl
    Размер: 1.46 GB (1562499072 Bytes)
    загрузка...
    Рейтинг →
     (голосов: 1, оценка 3/5, голосовать можно 1 раз )

    Другие торренты по теме:

  • Последнее завещание Нобеля / Nobels testamente (2012) BDRip 1080p от R.G. GoldenShara | Лицензия торрент скачать бесплатно
  • Индиана Джонс и последний крестовый поход / Indiana Jones and the Last Crusade (1989) HDRip от Scarabey | Р торрент скачать бесплатно
  • Городские легенды 2: Последний отрезок / Urban Legends: Final Cut (2000) DVDRip торрент скачать бесплатно
  • Последний киносеанс / The Last Picture Show (1971) BDRip от HQCLUB торрент скачать бесплатно
  • Последний король Шотландии / The Last King of Scotland (2006) HDRip от Scarabey | D торрент скачать бесплатно
  • Владимир Макаров - Последняя электричка (2002) Mp3 торрент скачать бесплатно
  • Джон Гришэм - Последний шанс (2007) (2011) MP3 торрент скачать бесплатно
  • Последняя истина / True Blue (2001) WEBDLRip-AVC от NovaLan торрент скачать бесплатно


    • Комментарии (0):

      Информация

      Информация

        Посетители, находящиеся в группе Гости, не могут оставлять комментарии в данной новости.

        ↓ Меню



        ↓ Опрос

        А Вы добавили сайт в закладки?
        Да
        Не


        Top 10 за неделю (Фильмы)