.
Авторизация | Регистрация
» » Сонная Лощина / Sleepy Hollow (2013) WEB-DLRip от Youtracker | NewStudio торрент скачать бесплатно




    Сонная Лощина / Sleepy Hollow (2013) WEB-DLRip от Youtracker | NewStudio торрент скачать бесплатно

    Опубликовал: Админ | Дата: 27-02-2015, 11:09 | Просмотров: 429

    Сонная Лощина / Sleepy Hollow



    Страна: США
    Жанр: Фантастика, триллер
    Год выпуска: 2013
    Продолжительность: 1х ~00:47:00

    Перевод: Профессиональный (многоголосый закадровый) (NewStudio)
    Cубтитры: нет
    Режиссер: Лен Уайзман / Len Wiseman

    В ролях: Том Мисон, Николь Бахари, Орландо Джонс, Катя Винтер, Меми Уэст, Кристофер МакКоннелл....

    Описание: Икабод Крэйн просыпается от предсмертной агонии, переместившись во времени на 250 лет вперед. Крэйн обнаруживает мир на грани разрушения и узнает, что только он является единственной надеждой человечества.



    Автор Рипа: _Flash

    Релиз: |

    Качество видео: WEB-DLRip
    Формат видео: AVI

    Видео: 720x400, 23,976 fps, 1813 Кбит/сек, 0.263 bit/pixel
    Аудио: AC-3, 48.0 KHz, 6 ch, 384 kbps

    Отчёт MediaInfo

    Общее
    Полное имя : D:Sleepy.Hollow.s01e01.WEB-DLRip.YTN.By_Flash.avi
    Формат : AVI
    Формат/Информация : Audio Video Interleave
    Размер файла : 745 Мбайт
    Продолжительность : 47 м.
    Общий поток : 2206 Кбит/сек
    Программа кодирования : VirtualDubMod 1.5.10.3 | www.virtualdub-fr.org || (build 2550/release)
    Библиотека кодирования : VirtualDubMod build 2550/release

    Видео
    Идентификатор : 0
    Формат : MPEG-4 Visual
    Профиль формата : Advanced Simple@L5
    Параметр BVOP формата : 1
    Параметр QPel формата : Нет
    Параметр GMC формата : Без точки перехода
    Параметр матрицы формата : Выборочная
    Идентификатор кодека : XVID
    Идентификатор кодека/Подсказка : XviD
    Продолжительность : 47 м.
    Битрейт : 1813 Кбит/сек
    Ширина : 720 пикселей
    Высота : 400 пикселей
    Соотношение сторон : 16:9
    Частота кадров : 23,976 кадра/сек
    Цветовое пространство : YUV
    Субдискретизация насыщенности : 4:2:0
    Битовая глубина : 8 бит
    Тип развёртки : Прогрессивная
    Метод сжатия : С потерями
    Бит/(Пиксели*Кадры) : 0.263
    Размер потока : 612 Мбайт (82%)
    Библиотека кодирования : XviD 65

    Аудио
    Идентификатор : 1
    Формат : AC-3
    Формат/Информация : Audio Coding 3
    Расширение режима : CM (complete main)
    Параметр Endianness формата : Big
    Идентификатор кодека : 2000
    Продолжительность : 47 м.
    Вид битрейта : Постоянный
    Битрейт : 384 Кбит/сек
    Каналы : 6 каналов
    Расположение каналов : Front: L C R, Side: L R, LFE
    Частота : 48,0 КГц
    Битовая глубина : 16 бит
    Метод сжатия : С потерями
    Размер потока : 130 Мбайт (17%)
    Выравнивание : Разделение по промежуткам
    Продолжительность промежутка : 42 мс. (1,00 видеокадр)
    Время предзагрузки промежутка : 500 мс.



    Скриншоты



    Внимание! Раздача ведётся путём добавления новых серий!
    Раздача ведётся путём добавления новых серий; при каждом добавлении создаётся новый торрент. Чтобы начать докачку новой серии, пользователям необходимо сделать следующее:
    (1) остановить скачивание,
    (2) удалить старый торрент у себя из клиента (старые серии удалять не надо),
    (3) скачать новый торрент и запустить его у себя в клиенте вместо старого, при этом указать клиенту путь в старую папку куда и должно происходить скачивание новых серий.

    Ваш клиент при этом должен произвести хеширование (проверку) старой папки (если не производит сам - помогите ему сделать это), и будет докачивать только те серии которых у вас ещё нет. Старые серии при этом не удаляются, а продолжают раздаваться!

    Eсли вы уже удалили старые серии, то предотвратить повторную закачку старых серий можно, отжав галочку в соответствующих местах при запуске нового торрента. По возможности, желательно не удалять старые серии как можно дольше чтобы релизёр не столько продолжал раздавать старые серии, а смог сконцентрироваться на новых.

    Залил: Flash_
    Размер: 744.96 MB (781144064 Bytes)
    загрузка...
    Рейтинг →
     (голосов: 1, оценка 4/5, голосовать можно 1 раз )

    Другие торренты по теме:



      Комментарии (0):

      Информация

      Информация

        Посетители, находящиеся в группе Гости, не могут оставлять комментарии в данной новости.

        ↓ Меню



        ↓ Опрос

        А Вы добавили сайт в закладки?
        Да
        Не


        Top 10 за неделю (Фильмы)