.
Авторизация | Регистрация
Хочешь лучшие торренты? Добавь свой email!
Добавить
» » Эпоха героев / Age of Heroes (2011) BDRip от Youtracker торрент скачать бесплатно




    Эпоха героев / Age of Heroes (2011) BDRip от Youtracker торрент скачать бесплатно

    Опубликовал: Админ | Дата: 27-02-2015, 11:09 | Просмотров: 267


    Страна: Великобритания
    Студия: Atlantic Swiss Productions
    Жанр: военный
    Год выпуска: 2011
    Продолжительность: 01:33:44

    Перевод: Профессиональный (многоголосый закадровый)
    Субтитры: английский
    Оригинальная аудиодорожка: английский

    Режиссер: Эдриан Виториа / Adrian Vitoria

    В ролях: Шон Бин, Изабелла Мико, Дэнни Дайер, Джеймс Д’Арси, Себастьян Стрит, Рози Феллнер, Аксель Хенни, Джон Даглейш, Уильям Хьюстон, Тео Барклем-Биггз...

    Описание: Фильм основан на реальных событиях и рассказывает о знаменитом английском отряде 30 Assault Unit, известном также под названием 30 Commando. Отряд был сформирован во время Второй мировой по инициативе Яна Флеминга, служившего тогда в британской военно-морской разведке, и действовал на оккупированной нацистами территории. Его задачей была добыча немецкой секретной документации и различных технических устройств...




    источник: BDRemux
    Тип релиза: BDRip
    Контейнер: AVI
    Видео: 720x304 (2,35:1), 24 fps, XVID ~ 2421 kbps avg, 0.461 bit/pixel
    Аудио: 48 kHz, AC3, 6 ch, 448.00 kbps Constant Русский
    Аудио: 48 kHz, AC3, 6 ch, 448.00 kbps Constant Английский
    Формат субтитров: SoftSub (srt)

    Раздача от:
    MediaInfo

    Общее
    Полное имя : Jepoha.geroev.2011.BDRip.avi
    Формат : AVI
    Формат/Информация : Audio Video Interleave
    Профиль формата : OpenDML
    Размер файла : 2,18 Гбайт
    Продолжительность : 1 ч. 33 м.
    Общий поток : 3335 Кбит/сек
    Программа кодирования : VirtualDubModRus 1.5.10.2 (build 2542/release)
    Библиотека кодирования : VirtualDubMod build 2542/release

    Видео
    Идентификатор : 0
    Формат : MPEG-4 Visual
    Профиль формата : Advanced Simple@L5
    Параметр BVOP формата : 1
    Параметр QPel формата : Нет
    Параметр GMC формата : Без точки перехода
    Параметр матрицы формата : Выборочная
    Идентификатор кодека : XVID
    Идентификатор кодека/Подсказка : XviD
    Продолжительность : 1 ч. 33 м.
    Битрейт : 2421 Кбит/сек
    Ширина : 720 пикселей
    Высота : 304 пикселя
    Соотношение сторон : 2,35:1
    Частота кадров : 24,000 кадра/сек
    Цветовое пространство : YUV
    Субдискретизация насыщенности : 4:2:0
    Битовая глубина : 8 бит
    Тип развёртки : Прогрессивная
    Метод сжатия : С потерями
    Бит/(Пиксели*Кадры) : 0.461
    Размер потока : 1,58 Гбайт (73%)
    Библиотека кодирования : XviD 1.2.1 (UTC 2008-12-04)

    Аудио #1
    Идентификатор : 1
    Формат : AC-3
    Формат/Информация : Audio Coding 3
    Расширение режима : CM (complete main)
    Идентификатор кодека : 2000
    Продолжительность : 1 ч. 33 м.
    Вид битрейта : Постоянный
    Битрейт : 448 Кбит/сек
    Каналы : 6 каналов
    Расположение каналов : Front: L C R, Side: L R, LFE
    Частота : 48,0 КГц
    Битовая глубина : 16 бит
    Метод сжатия : С потерями
    Размер потока : 300 Мбайт (13%)
    Выравнивание : Разделение по промежуткам
    Продолжительность промежутка : 42 мс. (1,00 видеокадр)
    Время предзагрузки промежутка : 500 мс.

    Аудио #2
    Идентификатор : 2
    Формат : AC-3
    Формат/Информация : Audio Coding 3
    Расширение режима : CM (complete main)
    Идентификатор кодека : 2000
    Продолжительность : 1 ч. 33 м.
    Вид битрейта : Постоянный
    Битрейт : 448 Кбит/сек
    Каналы : 6 каналов
    Расположение каналов : Front: L C R, Side: L R, LFE
    Частота : 48,0 КГц
    Битовая глубина : 16 бит
    Метод сжатия : С потерями
    Размер потока : 300 Мбайт (13%)
    Выравнивание : Разделение по промежуткам
    Продолжительность промежутка : 42 мс. (1,00 видеокадр)
    Время предзагрузки промежутка : 500 мс.

    Скриншоты



    Залил: AVPStudio
    Размер: 2.18 GB (2340921129 Bytes)
    загрузка...
    Рейтинг →
     (голосов: 1, оценка 3/5, голосовать можно 1 раз )

    Другие торренты по теме:



      Комментарии (0):

      Информация

      Информация

        Посетители, находящиеся в группе Гости, не могут оставлять комментарии в данной новости.

        ↓ Меню



        ↓ Опрос

        А Вы добавили сайт в закладки?
        Да
        Не


        Top 10 за месяц (Фильмы)