.
Авторизация | Регистрация
» » Притворись моим парнем / 20 ans decart (2013) HDRip от Youtracker | iTunes торрент скачать бесплатно




    Притворись моим парнем / 20 ans decart (2013) HDRip от Youtracker | iTunes торрент скачать бесплатно

    Опубликовал: Админ | Дата: 27-02-2015, 11:09 | Просмотров: 294

    Притворись моим парнем / 20 ans d;ecart

    Год выпуска: 2013
    Страна: Франция
    Жанр: Комедия
    Продолжительность: 01:32:36
    Перевод: Профессиональный (полное дублирование) iTunes Russia
    Субтитры: нет

    Режиссер: Давид Моро / David Moreau

    В ролях: Вирджиния Эфира, Пьер Нинэ, Шарль Берлинг, Жиль Коэн, Амели Гленн, Камила Джепи, Микаэль Абитбуль, Камиль Пелисье, Женна Азулай, Луи-До де Ланкесэ

    Описание: У редактора модного глянцевого журнала Алисы Лантенс безупречный вкус, отличное резюме и репутация железной леди. Но однажды начальство намекает, что возглавлять молодежное издание должен кто-то более смелый и провокативный. Решение приходит неожиданно: по нелепой случайности по миру шоу-бизнеса разносится слух о ее романе с 18-летним студентом. Оказывается, что подмоченная репутация — именно то, что нужно для продвижения по карьерной лестнице! Но куда деваться от парня, который и вправду влюбился?



    Качество: HDRip BDRip 1080p
    Формат: AVI
    Видео кодек: XviD
    Аудио кодек: AC3
    Видео: 720x304 (2.37:1), 24.000 fps, XviD build 73 ~1865 kbps avg, 0.35 bit/pixel
    Аудио: 48 kHz, AC3 Dolby Digital, 3/2 (L,C,R,l,r) LFE ch, ~384.00 kbps avg
    Раздача от:
    Скриншоты

    MI
    D:Мои рипыPritvoris.moim.parnem.2013.HDRip.dexter_lex.avi
    General
    Complete name : D:Мои рипыPritvoris.moim.parnem.2013.HDRip.dexter_lex.avi
    Format : AVI
    Format/Info : Audio Video Interleave
    File size : 1.46 GiB
    Duration : 1h 32mn
    Overall bit rate : 2 259 Kbps
    Writing application : VirtualDubMod 1.5.10.3 | www.virtualdub-fr.org || (build 2550/release)
    Writing library : VirtualDubMod build 2550/release
    Video #0
    ID : 0
    Format : MPEG-4 Visual
    Format profile : Advanced Simple@L5
    Format settings, BVOP : 1
    Format settings, QPel : No
    Format settings, GMC : No warppoints
    Format settings, Matrix : Custom
    Codec ID : XVID
    Codec ID/Hint : XviD
    Duration : 1h 32mn
    Bit rate : 1 865 Kbps
    Width : 720 pixels
    Height : 304 pixels
    Display aspect ratio : 2.35:1
    Frame rate : 24.000 fps
    Color space : YUV
    Chroma subsampling : 4:2:0
    Bit depth : 8 bits
    Scan type : Progressive
    Compression mode : Lossy
    Bits/(Pixel*Frame) : 0.355
    Stream size : 1.21 GiB (83%)
    Writing library : XviD 73
    Audio #1
    ID : 1
    Format : AC-3
    Format/Info : Audio Coding 3
    Mode extension : CM (complete main)
    Codec ID : 2000
    Duration : 1h 32mn
    Bit rate mode : Constant
    Bit rate : 384 Kbps
    Channel(s) : 6 channels
    Channel positions : Front: L C R, Side: L R, LFE
    Sampling rate : 48.0 KHz
    Bit depth : 16 bits
    Compression mode : Lossy
    Stream size : 254 MiB (17%)
    Alignment : Split accross interleaves
    Interleave, duration : 42 ms (1.00 video frame)
    Interleave, preload duration : 500 ms

    Размер: 1.46 GB (1568700416 Bytes)
    загрузка...
    Рейтинг →
     (голосов: 1, оценка 4/5, голосовать можно 1 раз )

    Другие торренты по теме:

  • Притворись моей женой / Just Go with It (2011) BDRip 720p от HQ-ViDEO торрент скачать бесплатно
  • Притворись моим парнем / 20 ans decart (2013) BDRip 720p | Звук с TS торрент скачать бесплатно
  • Притворись моим парнем / 20 ans decart (2013) HDRip | Звук с TS торрент скачать бесплатно
  • Притворись моим парнем / 20 ans decart (2013) BDRip 720p | iTunes Russia торрент скачать бесплатно
  • Притворись моим парнем / 20 ans decart (2013) BDRip 1080p | iTunes Russia торрент скачать бесплатно
  • Притворись моим парнем / 20 ans decart (2013) HDRip от INTERCINEMA | iTunes Russia торрент скачать бесплатно
  • Притворись моим парнем / 20 ans decart (2013) Blu-Ray Remux 1080p | D торрент скачать бесплатно
  • Притворись моим парнем / 20 ans decart (2013) BDRip 720p от leonardo 59 Scarabey | iTunes Russia скачать через торрент бесплатно


    • Комментарии (0):

      Информация

      Информация

        Посетители, находящиеся в группе Гости, не могут оставлять комментарии в данной новости.

        ↓ Меню



        ↓ Опрос

        А Вы добавили сайт в закладки?
        Да
        Не


        Top 10 за неделю (Фильмы)