.
Авторизация | Регистрация
» » Елена Троянская / Helen of Troy (2003) DVDRip от Youtracker торрент скачать бесплатно




    Елена Троянская / Helen of Troy (2003) DVDRip от Youtracker торрент скачать бесплатно

    Опубликовал: Админ | Дата: 27-02-2015, 11:09 | Просмотров: 503

    Елена Троянская / Helen of Troy

    Страна: США
    Год выпуска: 2003
    Жанр: Исторический, драма
    Продолжительность: 02:47:49
    Перевод: Профессиональный (многоголосый, закадровый)
    Русские субтитры: нет

    Режиссёр: Джон Кент Харрисон /John Kent Harrison

    В ролях: Сиена Гиллори, Мэттью Марсден, Руфус Сьюэлл, Джон Риз-Дэйвис, Мэриам д;Або, Эмилия Фокс, Джеймс Коллис, Даниэль Лапэйн, Найджел Уитми, Стеллан Скарсгард, Джо Монтана, Мануэль Коши, Крэйг Келли

    Описание:
    Жена царя Спарты Менелая, по имени Елена, страстно полюбила прекрасного троянского принца Париса. Влюбленные убегают в Трою под защиту отца Париса, Царя Приама. Но родной брат преданного супругой Менелая, безжалостный Агамемнон, вместе с громадной армией Спарты отправляется за Еленой к величественным стенам Трои. После десятилетней осады грекам удается проникнуть в город с помощью знаменитого Троянского Коня: начинается эпохальная битва, которая решит судьбу двух империй...



    Качество: DVDRip DVD9
    Формат: AVI
    Видео кодек: XviD
    Аудио кодек: MP3
    Видео: 656x368 (1.78:1), 25 fps, XviD build 73 ~1113 kbps avg, 0.18 bit/pixel
    Аудио: 48 kHz, MPEG Layer 3, 2 ch, ~128.00 kbps avg
    Раздача от:
    Скриншоты

    MI
    D:Мои рипыHelen.of.Troy.DVDRip.dexter_lex.avi
    General
    Complete name : D:Мои рипыHelen.of.Troy.DVDRip.dexter_lex.avi
    Format : AVI
    Format/Info : Audio Video Interleave
    File size : 1.47 GiB
    Duration : 2h 47mn
    Overall bit rate : 1 251 Kbps
    Writing application : VirtualDubMod 1.5.10.3 | www.virtualdub-fr.org || (build 2550/release)
    Writing library : VirtualDubMod build 2550/release
    Video #0
    ID : 0
    Format : MPEG-4 Visual
    Format profile : Advanced Simple@L5
    Format settings, BVOP : 1
    Format settings, QPel : No
    Format settings, GMC : No warppoints
    Format settings, Matrix : Custom
    Codec ID : XVID
    Codec ID/Hint : XviD
    Duration : 2h 47mn
    Bit rate : 1 113 Kbps
    Width : 656 pixels
    Height : 368 pixels
    Display aspect ratio : 16:9
    Frame rate : 25.000 fps
    Color space : YUV
    Chroma subsampling : 4:2:0
    Bit depth : 8 bits
    Scan type : Progressive
    Compression mode : Lossy
    Bits/(Pixel*Frame) : 0.184
    Stream size : 1.31 GiB (89%)
    Writing library : XviD 73
    Audio #1
    ID : 1
    Format : MPEG Audio
    Format version : Version 1
    Format profile : Layer 3
    Codec ID : 55
    Codec ID/Hint : MP3
    Duration : 2h 47mn
    Bit rate mode : Constant
    Bit rate : 128 Kbps
    Channel(s) : 2 channels
    Sampling rate : 48.0 KHz
    Compression mode : Lossy
    Stream size : 154 MiB (10%)
    Alignment : Aligned on interleaves
    Interleave, duration : 40 ms (1.00 video frame)
    Interleave, preload duration : 504 ms
    Writing library : LAME3.99r
    Encoding settings : -m s -V 4 -q 2 -lowpass 17 -b 128

    Размер: 1.47 GB (1574811648 Bytes)
    загрузка...
    Рейтинг →
     (голосов: 1, оценка 5/5, голосовать можно 1 раз )

    Другие торренты по теме:

  • Елена Панюкова - Adobe Illustrator с нуля от А до Я. Обучающий видеокурс (2012) PCRec торрент скачать бесплатно
  • Елена Жукова - Чистки организма. Лучшие методики (2012) PDF торрент скачать бесплатно
  • Елена Арсеньева - Собрание сочинений (1998-2012) FB2 торрент скачать бесплатно
  • Елена Терлеева - ПредИстория (2013) MP3 от Kulemina - Generalfilm торрент скачать бесплатно
  • Олеся Артемова, Наталья Балдина, Елена Вологдина - Большая энциклопедия открытий и изобретений (2007) PDF торрент скачать бесплатно
  • Елена Альхабаш - Варенье (2012) PDF торрент скачать бесплатно
  • Елена Альхабаш - Закуски (2012) PDF торрент скачать бесплатно
  • Елена Альхабаш - Запекаем мясо (2012) PDF торрент скачать бесплатно


    • Комментарии (0):

      Информация

      Информация

        Посетители, находящиеся в группе Гости, не могут оставлять комментарии в данной новости.

        ↓ Меню



        ↓ Опрос

        А Вы добавили сайт в закладки?
        Да
        Не


        Top 10 за неделю (Фильмы)