.
Авторизация | Регистрация
Хочешь лучшие торренты? Добавь свой email!
Добавить
» » Правила виноделов / The Cider House Rules (1999) HDRip от Youtracker торрент скачать бесплатно




    Правила виноделов / The Cider House Rules (1999) HDRip от Youtracker торрент скачать бесплатно

    Опубликовал: Админ | Дата: 27-02-2015, 11:09 | Просмотров: 357

    Правила виноделов / The Cider House Rules

    Год выпуска: 1999
    Страна: США
    Жанр: мелодрама, драма, ретро-драма
    Продолжительность: 02:05:24
    Перевод: Профессиональный (полное дублирование)
    Cубтитры: нет

    Режиссер: Лассе Халльстрём / Lasse Hallstrom)

    В ролях: Тоби Магуайр, Шарлиз Терон, Делрой Линдо, Пол Радд, Майкл Кейн, Джейн Александр, Кэти Бейкер, Эрика Баду, Киран Калкин, Кейт Неллиган

    Описание: 40-е годы. Где-то далеко идет война, а в сиротском приюте Сент Клауд, возглавляемом доктором Ларчем, решаются другие человеческие проблемы. Гомер Уэллс вырос в приюте и никогда еще не покидал его пределов. Зато преуспел в акушерстве, ассистируя доктору Ларчу.
    Именно здесь Гомер знакомится с Кэнди и ее возлюбленным, уезжающим на фронт. С ними он впервые покидает Сент Клауд, чтобы узнать другую жизнь, о которой пока только мечтал…



    Качество: HDRip BDRip 1080p
    Формат: AVI
    Видео кодек: XviD
    Аудио кодек: AC3
    Видео: 720x304 (2.37:1), 23.976 fps, XviD build 73 ~1467 kbps avg, 0.28 bit/pixel
    Аудио: 48 kHz, AC3 Dolby Digital, 2/0 (L,R) ch, ~192 kbps
    Раздача от:
    Скриншоты

    MI
    D:Мои рипыThe.Cider House Rules.1999.HDRip.dexter_lex.avi
    General
    Complete name : D:Мои рипыThe.Cider House Rules.1999.HDRip.dexter_lex.avi
    Format : AVI
    Format/Info : Audio Video Interleave
    File size : 1.46 GiB
    Duration : 2h 5mn
    Overall bit rate : 1 669 Kbps
    Writing application : VirtualDubMod 1.5.10.3 | www.virtualdub-fr.org || (build 2550/release)
    Writing library : VirtualDubMod build 2550/release
    Video #0
    ID : 0
    Format : MPEG-4 Visual
    Format profile : Advanced Simple@L5
    Format settings, BVOP : 1
    Format settings, QPel : No
    Format settings, GMC : No warppoints
    Format settings, Matrix : Custom
    Codec ID : XVID
    Codec ID/Hint : XviD
    Duration : 2h 5mn
    Bit rate : 1 467 Kbps
    Width : 720 pixels
    Height : 304 pixels
    Display aspect ratio : 2.35:1
    Frame rate : 23.976 fps
    Color space : YUV
    Chroma subsampling : 4:2:0
    Bit depth : 8 bits
    Scan type : Progressive
    Compression mode : Lossy
    Bits/(Pixel*Frame) : 0.280
    Stream size : 1.29 GiB (88%)
    Writing library : XviD 73
    Audio #1
    ID : 1
    Format : AC-3
    Format/Info : Audio Coding 3
    Mode extension : CM (complete main)
    Codec ID : 2000
    Duration : 2h 5mn
    Bit rate mode : Constant
    Bit rate : 192 Kbps
    Channel(s) : 2 channels
    Channel positions : Front: L R
    Sampling rate : 48.0 KHz
    Bit depth : 16 bits
    Compression mode : Lossy
    Stream size : 172 MiB (11%)
    Alignment : Split accross interleaves
    Interleave, duration : 42 ms (1.00 video frame)
    Interleave, preload duration : 500 ms

    Размер: 1.46 GB (1569753088 Bytes)
    загрузка...
    Рейтинг →
     (голосов: 1, оценка 4/5, голосовать можно 1 раз )

    Другие торренты по теме:

  • Правила виноделов / The Cider House Rules (1999) BDRip 1080p от FREEISLAND
  • Правила виноделов / The Cider House Rules (1999) BDRip-AVC от Rulya74
  • Правила виноделов / The Cider House Rules (1999) BDRip-AVC | iPad | D
  • Правила виноделов / The Cider House Rules (1999) BDRip 720p | D
  • Правила виноделов / The Cider House Rules (1999) BDRip-AVC | D
  • Правила виноделов / The Cider House Rules (1999) BDRip 720p от Leonardo | D


    • Комментарии (0):

      Информация

      Информация

        Посетители, находящиеся в группе Гости, не могут оставлять комментарии в данной новости.

        ↓ Меню



        ↓ Опрос

        А Вы добавили сайт в закладки?
        Да
        Не


        Top 10 за месяц (Фильмы)