.
Авторизация | Регистрация
» » Тепло наших тел / Warm Bodies (2013) BDRip-AVC | D торрент скачать бесплатно




    Тепло наших тел / Warm Bodies (2013) BDRip-AVC | D торрент скачать бесплатно

    Опубликовал: Админ | Дата: 27-02-2015, 11:09 | Просмотров: 324





    Год выпуска: 2013
    Производство: США | Summit Entertainment, Make Movies, Mandeville Films
    Жанр: Ужасы, Мелодрама, Комедия
    Перевод: Дублированный студия Пифагор по заказу West
    Субтитры: Русский x2, Английский (Full, SDH, SDH-Colored), Испанский, Французкий, Португальский
    Продолжительность: 01:37:45

    Режиссер: Джонатан Левин

    Продюсер: Дэвид Хоберман, Тодд Либерман, Бруна Папандреа

    Актеры: Николас Холт, Тереза Палмер, Анали Типтон, Роб Кордри, Дэйв Франко, Джон Малкович, Кори Хардрикт, Дэниэл Риндресс-Кей, Винсент Леклерк, Клиффорд ЛеДюк-Вайанкур, Билли Кальмо, Адам Дрисколл, Крис Каверен ...

    Роли дублировали: Сергей Смирнов, Анастасия Жаркова, Наталья Терешкова, Илья Хвостиков, Антон Эльдаров, Андрей Данилюк

    Описание фильма:
    Мир поражен чумой и стоит на грани вымирания. Покойники ходят по земле и норовят употребить в пищу живых, которые, оставшись в катастрофическом меньшинстве, с трудом держат оборону. Перемены начинаются, когда один зомби, чье имя при жизни начиналось на Р, спасает девушку вместо того, чтобы ее съесть. Дружба, завязавшаяся между представителями враждующих сторон, грозит обоим самыми нехорошими последствиями. Но Р и Джули, сами того не подозревая, держат в руках простой и единственный ключ к спасению гибнущего мира.

    Релиз: NNM-CLUB

    Качество: BDRip-AVC
    Видео: 1024 x 426, 23.976 fps, 2200 Кбит/сек, 0.210 Bits/Pixel
    Аудио #1: AC3, 448 Кбит/сек (6ch), 48,0 КГц, 16 бит Русский, Дубляж ст. Пифагор
    Аудио #2: AC3, 448 Кбит/сек (6ch), 48,0 КГц, 16 бит Английский
    Аудио #3: AC3, 128 Кбит/сек (2ch), 48,0 КГц, 16 бит Английский-комментарии (Jonathan Levine, Nicholas Hoult Teresa Palmer)

    Семпл

    MediaInfo:
    Формат : Matroska
    Версия формата : Version 2
    Размер файла : 2,20 Гбайт
    Продолжительность : 1 ч. 37 м.
    Общий поток : 3223 Кбит/сек
    Название фильма : Warm.Bodies.2013.D.BDRip.H.264.NNM-CLUB
    Дата кодирования : UTC 2013-09-23 08:43:16
    Программа кодирования : mkvmerge v2.9.9 (;Tutu;) built on Nov 25 2009 21:13:32
    Библиотека кодирования : libebml v0.7.9 libmatroska v0.8.1

    Видео
    Идентификатор : 1
    Формат : AVC
    Формат/Информация : Advanced Video Codec
    Профиль формата : High@L4.1
    Параметр CABAC формата : Да
    Параметр ReFrames формата : 8 кадров
    Идентификатор кодека : V_MPEG4/ISO/AVC
    Продолжительность : 1 ч. 37 м.
    Битрейт : 2200 Кбит/сек
    Ширина : 1024 пикселя
    Высота : 426 пикселей
    Соотношение сторон : 2,40:1
    Режим частоты кадров : Постоянный
    Частота кадров : 23,976 кадра/сек
    Цветовое пространство : YUV
    Субдискретизация насыщенности : 4:2:0
    Битовая глубина : 8 бит
    Тип развёртки : Прогрессивная
    Бит/(Пиксели*Кадры) : 0.210
    Размер потока : 1,46 Гбайт (66%)
    Заголовок : Rip by Enigma-Vladislav71
    Библиотека кодирования : x264 core 129 r2245 bc13772
    Настройки программы : cabac=1 / ref=8 / deblock=1:-2:-2 / analyse=0x3:0x133 / me=umh / subme=11 / psy=1 / psy_rd=1.00:0.00 / mixed_ref=1 / me_range=48 / chroma_me=1 / trellis=2 / 8x8dct=1 / cqm=0 / deadzone=21,11 / fast_pskip=0 / chroma_qp_offset=-2 / threads=3 / lookahead_threads=1 / sliced_threads=0 / nr=0 / decimate=0 / interlaced=0 / bluray_compat=0 / constrained_intra=0 / bframes=8 / b_pyramid=2 / b_adapt=2 / b_bias=0 / direct=3 / weightb=1 / open_gop=0 / weightp=2 / keyint=240 / keyint_min=23 / scenecut=40 / intra_refresh=0 / rc_lookahead=40 / rc=2pass / mbtree=1 / bitrate=2200 / ratetol=1.0 / qcomp=0.60 / qpmin=10 / qpmax=51 / qpstep=4 / cplxblur=20.0 / qblur=0.5 / ip_ratio=1.40 / aq=2:1.00
    Язык : English
    Default : Да
    Forced : Нет

    Аудио #1
    Идентификатор : 2
    Формат : AC-3
    Формат/Информация : Audio Coding 3
    Расширение режима : CM (complete main)
    Параметр Endianness формата : Big
    Идентификатор кодека : A_AC3
    Продолжительность : 1 ч. 37 м.
    Вид битрейта : Постоянный
    Битрейт : 448 Кбит/сек
    Каналы : 6 каналов
    Расположение каналов : Front: L C R, Side: L R, LFE
    Частота : 48,0 КГц
    Битовая глубина : 16 бит
    Метод сжатия : С потерями
    Размер потока : 313 Мбайт (14%)
    Заголовок : AC3.448.Kbps (6ch) Russian (Дубляж ст. Пифагор)
    Язык : Russian
    Default : Да
    Forced : Нет

    Аудио #2
    Идентификатор : 3
    Формат : AC-3
    Формат/Информация : Audio Coding 3
    Расширение режима : CM (complete main)
    Параметр Endianness формата : Big
    Идентификатор кодека : A_AC3
    Продолжительность : 1 ч. 37 м.
    Вид битрейта : Постоянный
    Битрейт : 448 Кбит/сек
    Каналы : 6 каналов
    Расположение каналов : Front: L C R, Side: L R, LFE
    Частота : 48,0 КГц
    Битовая глубина : 16 бит
    Метод сжатия : С потерями
    Размер потока : 313 Мбайт (14%)
    Заголовок : AC3.448.Kbps (6ch) English
    Язык : English
    Default : Нет
    Forced : Нет

    Аудио #3
    Идентификатор : 4
    Формат : AC-3
    Формат/Информация : Audio Coding 3
    Расширение режима : CM (complete main)
    Параметр Endianness формата : Big
    Идентификатор кодека : A_AC3
    Продолжительность : 1 ч. 37 м.
    Вид битрейта : Постоянный
    Битрейт : 128 Кбит/сек
    Каналы : 2 канала
    Расположение каналов : Front: L R
    Частота : 48,0 КГц
    Битовая глубина : 16 бит
    Метод сжатия : С потерями
    Размер потока : 89,5 Мбайт (4%)
    Заголовок : AC3.128.Kbps (2ch) English (Commentary Jonathan Levine, Nicholas Hoult Teresa Palmer)
    Язык : English
    Default : Нет
    Forced : Нет

    Текст #1
    Идентификатор : 5
    Формат : UTF-8
    Идентификатор кодека : S_TEXT/UTF8
    Идентификатор кодека/Информация : UTF-8 Plain Text
    Заголовок : Russian (Full) (Notabenoid)
    Язык : Russian
    Default : Нет
    Forced : Нет

    Текст #2
    Идентификатор : 6
    Формат : UTF-8
    Идентификатор кодека : S_TEXT/UTF8
    Идентификатор кодека/Информация : UTF-8 Plain Text
    Заголовок : Russian (Full) (Spanky_G)
    Язык : Russian
    Default : Нет
    Forced : Нет

    Текст #3
    Идентификатор : 7
    Формат : UTF-8
    Идентификатор кодека : S_TEXT/UTF8
    Идентификатор кодека/Информация : UTF-8 Plain Text
    Заголовок : English (Full)
    Язык : English
    Default : Нет
    Forced : Нет

    Текст #4
    Идентификатор : 8
    Формат : UTF-8
    Идентификатор кодека : S_TEXT/UTF8
    Идентификатор кодека/Информация : UTF-8 Plain Text
    Заголовок : English (SDH)
    Язык : English
    Default : Нет
    Forced : Нет

    Текст #5
    Идентификатор : 9
    Формат : UTF-8
    Идентификатор кодека : S_TEXT/UTF8
    Идентификатор кодека/Информация : UTF-8 Plain Text
    Заголовок : English (SDH-Colored)
    Язык : English
    Default : Нет
    Forced : Нет

    Текст #6
    Идентификатор : 10
    Формат : UTF-8
    Идентификатор кодека : S_TEXT/UTF8
    Идентификатор кодека/Информация : UTF-8 Plain Text
    Заголовок : Spanish (Full)
    Язык : Spanish
    Default : Нет
    Forced : Нет

    Текст #7
    Идентификатор : 11
    Формат : UTF-8
    Идентификатор кодека : S_TEXT/UTF8
    Идентификатор кодека/Информация : UTF-8 Plain Text
    Заголовок : French (Full)
    Язык : French
    Default : Нет
    Forced : Нет

    Текст #8
    Идентификатор : 12
    Формат : UTF-8
    Идентификатор кодека : S_TEXT/UTF8
    Идентификатор кодека/Информация : UTF-8 Plain Text
    Заголовок : Portuguese (Full)
    Язык : Portuguese
    Default : Нет
    Forced : Нет

    Меню
    00:00:00.000 : en:01
    00:06:39.858 : en:02
    00:12:24.202 : en:03
    00:19:24.580 : en:04
    00:24:22.920 : en:05
    00:31:17.626 : en:06
    00:40:52.408 : en:07
    00:45:32.563 : en:08
    00:49:56.285 : en:09
    00:55:44.091 : en:10
    01:02:25.492 : en:11
    01:08:49.876 : en:12
    01:14:08.861 : en:13
    01:17:27.393 : en:14
    01:24:00.702 : en:15
    01:30:30.759 : en:16
    Скриншоты

    Размер: 2.20 GB (2363503298 Bytes)
    загрузка...
    Рейтинг →
     (голосов: 1, оценка 3/5, голосовать можно 1 раз )

    Другие торренты по теме:



      Комментарии (0):

      Информация

      Информация

        Посетители, находящиеся в группе Гости, не могут оставлять комментарии в данной новости.

        ↓ Меню



        ↓ Опрос

        А Вы добавили сайт в закладки?
        Да
        Не


        Top 10 за неделю (Фильмы)