.
Авторизация | Регистрация
Хочешь лучшие торренты? Добавь свой email!
Добавить
» » От заката до рассвета / From Dusk Till Dawn (1996) DVD9 | P, A скачать через торрент бесплатно




    От заката до рассвета / From Dusk Till Dawn (1996) DVD9 | P, A скачать через торрент бесплатно

    Опубликовал: Админ | Дата: 27-02-2015, 11:09 | Просмотров: 414



    Информация о фильме
    Название: От заката до рассвета
    Оригинальное название: From Dusk Till Dawn
    Год выхода: 1996
    Жанр: ужасы, фэнтези, боевик, триллер, криминал
    Режиссер: Роберт Родригес
    В ролях: Джордж Клуни, Харви Кейтель, Квентин Тарантино, Джульетт Льюис, Эрнест Лю, Сальма Хайек, Чич Марин, Дэнни Трехо, Том Савини, Фред Уильямсон

    О фильме:
    Спасаясь от полиции после ограбления банка, два брата-грабителя берут в заложники священника и его детей. Около американской границы они решают провести ночь в придорожном баре. Тут-то всё и начинается…




    Страна: США
    Студия: A Band Apart, Dimension Films, Los Hooligans Productions, Miramax Films
    Продолжительность: 108 мин. / 01:48
    Перевод 1: профессиональный (многоголосый, закадровый)
    Перевод 2: авторский (Андрей Гаврилов)
    Перевод бонусов: отсутствует

    Файл
    Кодек: MPEG2
    Качество: DVD9
    Видео: PAL 16:9 (720x576) VBR 4452 Kbps, 25.000 fps
    Звук 1: Dolby AC3, 6 ch, 48.0 KHz, 384 Kbps русский, английский
    Звук 2: Dolby AC3, 2 ch, 48.0 KHz, 192 Kbps комментарии
    Звук 3: DTS 6 ch, 48.0 KHz, 755 Kbps авторский
    Субтитры: русские, английские

    MediaInfo
    General
    Complete name : E:Ot.zakata.do.rassveta.DVD9VIDEO_TSVTS_01_1.VOB
    Format : MPEG-PS
    File size : 1 024 MiB
    Duration : 22mn 44s
    Overall bit rate mode : Variable
    Overall bit rate : 6 292 Kbps

    Video
    ID : 224 (0xE0)
    Format : MPEG Video
    Format version : Version 2
    Format profile : Main@Main
    Format settings, BVOP : Yes
    Format settings, Matrix : Custom
    Format settings, GOP : M=3, N=15
    Duration : 22mn 44s
    Bit rate mode : Variable
    Bit rate : 4 452 Kbps
    Maximum bit rate : 7 500 Kbps
    Width : 720 pixels
    Height : 576 pixels
    Display aspect ratio : 16:9
    Frame rate : 25.000 fps
    Standard : PAL
    Color space : YUV
    Chroma subsampling : 4:2:0
    Bit depth : 8 bits
    Scan type : Interlaced
    Scan order : Top Field First
    Compression mode : Lossy
    Bits/(Pixel*Frame) : 0.429
    Time code of first frame : 00:00:00:00
    Time code source : Group of pictures t_head
    Stream size : 724 MiB (71%)

    Audio #1
    ID : 189 (0xBD)-128 (0x80)
    Format : AC-3
    Format/Info : Audio Coding 3
    Mode extension : CM (complete main)
    Format settings, Endianness : Big
    Muxing mode : DVD-Video
    Duration : 22mn 44s
    Bit rate mode : Constant
    Bit rate : 384 Kbps
    Channel(s) : 6 channels
    Channel positions : Front: L C R, Side: L R, LFE
    Sampling rate : 48.0 KHz
    Bit depth : 16 bits
    Compression mode : Lossy
    Delay relative to video : -80ms
    Stream size : 62.5 MiB (6%)

    Audio #2
    ID : 189 (0xBD)-130 (0x82)
    Format : AC-3
    Format/Info : Audio Coding 3
    Mode extension : CM (complete main)
    Format settings, Endianness : Big
    Muxing mode : DVD-Video
    Duration : 22mn 44s
    Bit rate mode : Constant
    Bit rate : 384 Kbps
    Channel(s) : 6 channels
    Channel positions : Front: L C R, Side: L R, LFE
    Sampling rate : 48.0 KHz
    Bit depth : 16 bits
    Compression mode : Lossy
    Delay relative to video : -80ms
    Stream size : 62.5 MiB (6%)

    Audio #3
    ID : 189 (0xBD)-131 (0x83)
    Format : AC-3
    Format/Info : Audio Coding 3
    Mode extension : CM (complete main)
    Format settings, Endianness : Big
    Muxing mode : DVD-Video
    Duration : 22mn 44s
    Bit rate mode : Constant
    Bit rate : 192 Kbps
    Channel(s) : 2 channels
    Channel positions : Front: L R
    Sampling rate : 48.0 KHz
    Bit depth : 16 bits
    Compression mode : Lossy
    Delay relative to video : -80ms
    Stream size : 31.2 MiB (3%)

    Audio #4
    ID : 189 (0xBD)-137 (0x89)
    Format : DTS
    Format/Info : Digital Theater Systems
    Mode : 16
    Format settings, Endianness : Big
    Muxing mode : DVD-Video
    Duration : 22mn 44s
    Bit rate mode : Constant
    Bit rate : 755 Kbps
    Channel(s) : 6 channels
    Channel positions : Front: L C R, Side: L R, LFE
    Sampling rate : 48.0 KHz
    Bit depth : 24 bits
    Compression mode : Lossy
    Delay relative to video : -80ms
    Stream size : 123 MiB (12%)

    Text #1
    ID : 189 (0xBD)-32 (0x20)
    Format : RLE
    Format/Info : Run-length encoding
    Muxing mode : DVD-Video

    Text #2
    ID : 189 (0xBD)-33 (0x21)
    Format : RLE
    Format/Info : Run-length encoding
    Muxing mode : DVD-Video

    Menu

    Скриншоты

    Залил: carisha
    Размер: 7.81 GB (8381100032 Bytes)

    От заката до рассвета / From Dusk Till Dawn (1996) DVD9 | P, A скачать через торрент бесплатно
    загрузка...
    Рейтинг →
     (голосов: 1, оценка 4/5, голосовать можно 1 раз )

    Другие торренты по теме:

  • Dead Horde: От заката до рассвета (2012) PC | Repack от R.G. UPG
  • От заката до рассвета 3: Дочь палача / From Dusk Till Dawn 3: The Hangmans Daughter (1999) HDRip от Scarabey | Р
  • От заката до рассвета 3: Дочь палача / From Dusk Till Dawn 3: The Hangmans Daughter (1999) BDRip от Rulya74 | P. A скачать через торрент бесплатно
  • От заката до рассвета / From Dusk Till Dawn (1996) BDRip от Rulya74 | P | Гоблин
  • От заката до рассвета / From Dusk Till Dawn: The Series (2014) WEB-DLRip от Scarabey | NewStudio
  • От заката до рассвета / From Dusk Till Dawn: The Series (2014) WEB-DLRip-AVC от MediaClub | NewStudio скачать через торрент бесплатно
  • От заката до рассвета / From Dusk Till Dawn (1996) HDRip-AVC от New-Team | Гоблин скачать через торрент бесплатно
  • От заката до рассвета / From Dusk Till Dawn: The Series (2014) WEB-DLRip от Generalfilm | КПК | LostFilm


    • Комментарии (0):

      Информация

      Информация

        Посетители, находящиеся в группе Гости, не могут оставлять комментарии в данной новости.

        ↓ Меню



        ↓ Опрос

        А Вы добавили сайт в закладки?
        Да
        Не


        Top 10 за месяц (Фильмы)