.
Авторизация | Регистрация
» » Безумные преподы / Les profs (2013) BDRip-AVC | Чистый звук скачать через торрент бесплатно




    Безумные преподы / Les profs (2013) BDRip-AVC | Чистый звук скачать через торрент бесплатно

    Опубликовал: Админ | Дата: 27-02-2015, 11:09 | Просмотров: 353



    Информация о фильме
    Название: Безумные преподы
    Оригинальное название: Les profs
    Год выхода: 2013
    Жанр: комедия

    Режиссер: Пьер-Франсуа Мартен-Лаваль
    В ролях: Кристиан Клавье, Изабель Нанти, Пьер-Франсуа Мартен-Лаваль, Кев Адамс, Франсуа Морель, Арно Дюкре, Стефи Сельма, Рэймонд Бочар, Фред Туш, Филипп Дюкло

    О фильме: Лицей имени Жюля Ферри — худший во Франции. Показатели успеваемости настолько низки, что школа на грани закрытия. Единственный шанс спасти учебное заведение — не провалить ЕГЭ, на что решительно настроены учащиеся старшего класса — редкие бездельники и раздолбаи. Чтобы избежать позора, директор вызывает подкрепление: десант сумасбродных преподов, которые оказываются не намного лучше своих учеников. В их числе брутальный качок Эрик (учитель физкультуры), отвязная толстуха с бензопилой Глэдис (учитель английского), фанатичный экспериментатор Альберт (учитель химии), сексапильная шоколадка Амина (учитель французского), безобидный отморозок в костюме Наполеона Полошон (учитель истории) и преподаватель неопознанного предмета, любитель покурить травку и поговорить о том о сем — пофигист Кутиро. Если лучшее решение — худший учитель, как они сдадут ЕГЭ?



    Выпущено: Франция, Les films du 24, TF1 Droits Audiovisuels, TF1 Films Production
    Продолжительность: 01:28:04
    Озвучивание: Дублированное Чистый звук

    Файл
    Формат: MKV
    Качество: BDRip-AVC Рип с Les Profs 2013 1080p FRA Blu-Ray AVC DTS-HD MA 5.1-STEAL
    Видео: x264, 1056x448 (2.35:1), 24.000 fps, 1913 Кbps, 0.168 bit/pixel
    Аудио: Russian: AC3, 192 kb/s (2 ch) / French: AC3, 256 kb/s (6 ch)
    Скачать: Сэмпл

    x264@log
    frame I:1649 Avg QP:17.51 size: 78211
    frame P:27966 Avg QP:20.42 size: 20892
    frame B:97207 Avg QP:22.13 size: 5645
    MediaInfo
    Complete name : Les.Profs.2013.BDRip.AVC-ed_rez.mkv
    Format : Matroska
    Format version : Version 4 / Version 2
    File size : 1.45 GiB
    Duration : 1h 28mn
    Overall bit rate : 2 360 Kbps
    Movie name : Les Profs (2013) encoded by ed_rez
    Encoded date : UTC 2013-09-25 16:01:47
    Writing application : mkvmerge v6.4.1 (;Omega Point;) built on Sep 16 2013 22:05:10
    Writing library : libebml v1.3.0 libmatroska v1.4.1

    Video
    ID : 1
    Format : AVC
    Format/Info : Advanced Video Codec
    Format profile : High@L4.1
    Format settings, CABAC : Yes
    Format settings, ReFrames : 9 frames
    Codec ID : V_MPEG4/ISO/AVC
    Duration : 1h 28mn
    Bit rate : 1 913 Kbps
    Width : 1 056 pixels
    Height : 448 pixels
    Display aspect ratio : 2.35:1
    Frame rate mode : Constant
    Frame rate : 24.000 fps
    Color space : YUV
    Chroma subsampling : 4:2:0
    Bit depth : 8 bits
    Scan type : Progressive
    Bits/(Pixel*Frame) : 0.168
    Stream size : 1.15 GiB (79%)
    Title : Les Profs (2013)
    Writing library : x264 core 133 r2334 a3ac64b
    Encoding settings : cabac=1 / ref=9 / deblock=1:-3:-3 / analyse=0x3:0x113 / me=umh / subme=10 / psy=1 / psy_rd=1.10:0.05 / mixed_ref=1 / me_range=32 / chroma_me=1 / trellis=2 / 8x8dct=1 / cqm=0 / deadzone=21,11 / fast_pskip=0 / chroma_qp_offset=-3 / threads=12 / lookahead_threads=2 / sliced_threads=0 / nr=0 / decimate=0 / interlaced=0 / bluray_compat=0 / constrained_intra=0 / bframes=7 / b_pyramid=2 / b_adapt=2 / b_bias=0 / direct=3 / weightb=1 / open_gop=0 / weightp=2 / keyint=240 / keyint_min=24 / scenecut=40 / intra_refresh=0 / rc_lookahead=100 / rc=2pass / mbtree=0 / bitrate=1913 / ratetol=1.0 / qcomp=0.60 / qpmin=0 / qpmax=69 / qpstep=4 / cplxblur=20.0 / qblur=0.5 / vbv_maxrate=22000 / vbv_bufsize=24000 / nal_hrd=none / ip_ratio=1.40 / pb_ratio=1.30 / aq=1:1.00
    Language : French
    Default : Yes
    Forced : No
    Color primaries : BT.709
    Transfer characteristics : BT.709
    Matrix coefficients : BT.709

    Audio #1
    ID : 2
    Format : AC-3
    Format/Info : Audio Coding 3
    Mode extension : CM (complete main)
    Format settings, Endianness : Big
    Codec ID : A_AC3
    Duration : 1h 28mn
    Bit rate mode : Constant
    Bit rate : 192 Kbps
    Channel count : 2 channels
    Channel positions : Front: L R
    Sampling rate : 48.0 KHz
    Bit depth : 16 bits
    Compression mode : Lossy
    Stream size : 121 MiB (8%)
    Title : DUB AC3, 2 ch, 192 kbps
    Language : Russian
    Default : No
    Forced : No

    Audio #2
    ID : 3
    Format : AC-3
    Format/Info : Audio Coding 3
    Mode extension : CM (complete main)
    Format settings, Endianness : Big
    Codec ID : A_AC3
    Duration : 1h 28mn
    Bit rate mode : Constant
    Bit rate : 256 Kbps
    Channel count : 6 channels
    Channel positions : Front: L C R, Side: L R, LFE
    Sampling rate : 48.0 KHz
    Bit depth : 16 bits
    Compression mode : Lossy
    Stream size : 161 MiB (11%)
    Title : AC3, 6 ch, 256 kbps
    Language : French
    Default : No
    Forced : No
    Скриншоты

    http://alt.rutor.org/torrent/306339/bezumnye-prepody_les-profs-2013-hdrip-avc-chistyj-zvuk
    http://screenshotcomparison.com/comparison/42344/picture:3
    Размер: 1.45 GB (1559142699 Bytes)

    Безумные преподы / Les profs (2013) BDRip-AVC | Чистый звук скачать через торрент бесплатно
    загрузка...
    Рейтинг →
     (голосов: 1, оценка 4/5, голосовать можно 1 раз )

    Другие торренты по теме:

  • Безумные преподы / Les profs (2013) BDRip-AVC | Звук с TS торрент скачать бесплатно
  • Безумные преподы / Les profs (2013) HDRip | Чистый звук скачать через торрент бесплатно
  • Безумные преподы / Les profs (2013) HDRip-AVC | Чистый звук скачать через торрент бесплатно
  • Безумные преподы / Les profs (2013) BDRip 720p | Чистый звук скачать через торрент бесплатно
  • Безумные преподы / Les profs (2013) BDRip-AVC от leonardo 59 Scarabey | Чистый звук торрент скачать бесплатно
  • Безумные преподы / Les profs (2013) BDRip 720p от leonardo 59 Scarabey | Чистый звук торрент скачать бесплатно
  • Безумные преподы / Les profs (2013) HDRip | Лицензия скачать через торрент бесплатно
  • Безумные преподы / Les profs (2013) BDRemux 1080p | Лицензия скачать через торрент бесплатно


    • Комментарии (0):

      Информация

      Информация

        Посетители, находящиеся в группе Гости, не могут оставлять комментарии в данной новости.

        ↓ Меню



        ↓ Опрос

        А Вы добавили сайт в закладки?
        Да
        Не


        Top 10 за неделю (Фильмы)