.
Авторизация | Регистрация
Хочешь лучшие торренты? Добавь свой email!
Добавить
» » Кровь искупления / Blood of Redemption (2013) BDRip 1080p | L скачать через торрент бесплатно




    Кровь искупления / Blood of Redemption (2013) BDRip 1080p | L скачать через торрент бесплатно

    Опубликовал: Админ | Дата: 27-02-2015, 11:09 | Просмотров: 308



    Информация о фильме
    Название: Кровь искупления
    Оригинальное название: Blood of Redemption
    Год выпуска: 2013
    Жанр: Боевик, триллер, драма, криминал
    Выпущено: США, VMI Worldwide, High Five Films
    Режиссер: Джорджо Серафини, Шон Сургос
    В ролях: Дольф Лундгрен, Винни Джонс, Билли Зейн, Джанни Капальди, Роберт Дави, Роберт Миано, Масси Фурлан, ЛаДон Драммонд, Джелли Хоуи, Дженнифер Сайпс

    О фильме: Куинн Форте имел всё: власть, богатство, брата, боготворивший его, и женщину, которая очень любила его. Преданный кем-то из друзей, в одну ночь он теряет всё. Его отец — глава криминального клана убит, а брат считает, что это вина именно Куинна, который оказывается за решеткой. После освобождения из тюрьмы, герой объединяется со своим бывшим ставленником и близким другом и наносит врагам ответный удар.




    Файл
    Качество: BDRip (1080p)
    Видео: MPEG-4 AVC, 8577 Кбит/с, 1920x1078
    Аудио: Русский (AC3, 6 ch, 448 Кбит/с), английский (DTS, 6 ch, 1510 Кбит/с)
    Размер: 6.26 ГБ
    Продолжительность: 01:25:10
    Перевод: Любительский многоголосый
    MI
    Общее
    Уникальный идентификатор : 194204808566967071014235038407283223680 (0x921A7C5159BF4C6B8C11D399A388AC80)
    Полное имя : C:DownloadsVideoBlood.of.Redemption.2013.P.BDRip.1080p.mkv
    Формат : Matroska
    Версия формата : Version 4 / Version 2
    Размер файла : 6,26 Гбайт
    Продолжительность : 1 ч. 25 м.
    Общий поток : 10,5 Мбит/сек
    Дата кодирования : UTC 2013-09-25 16:18:36
    Программа кодирования : mkvmerge v6.3.0 (;You can;t stop me!;) built on Jun 28 2013 20:09:41
    Библиотека кодирования : libebml v1.3.0 libmatroska v1.4.0

    Видео
    Идентификатор : 1
    Формат : AVC
    Формат/Информация : Advanced Video Codec
    Профиль формата : High@L4.1
    Параметр CABAC формата : Да
    Параметр ReFrames формата : 4 кадра
    Идентификатор кодека : V_MPEG4/ISO/AVC
    Продолжительность : 1 ч. 25 м.
    Битрейт : 8577 Кбит/сек
    Ширина : 1920 пикселей
    Высота : 1078 пикселей
    Соотношение сторон : 16:9
    Режим частоты кадров : Постоянный
    Частота кадров : 23,976 кадра/сек
    Цветовое пространство : YUV
    Субдискретизация насыщенности : 4:2:0
    Битовая глубина : 8 бит
    Тип развёртки : Прогрессивная
    Бит/(Пиксели*Кадры) : 0.173
    Размер потока : 4,97 Гбайт (79%)
    Библиотека кодирования : x264 core 138 r2356 a1d3d17
    Настройки программы : cabac=1 / ref=4 / deblock=1:-3:-3 / analyse=0x3:0x113 / me=umh / subme=10 / psy=1 / psy_rd=1.00:0.05 / mixed_ref=1 / me_range=32 / chroma_me=1 / trellis=2 / 8x8dct=1 / cqm=0 / deadzone=21,11 / fast_pskip=0 / chroma_qp_offset=-2 / threads=18 / lookahead_threads=1 / sliced_threads=0 / nr=0 / decimate=1 / interlaced=0 / bluray_compat=0 / constrained_intra=0 / bframes=4 / b_pyramid=2 / b_adapt=2 / b_bias=0 / direct=3 / weightb=1 / open_gop=0 / weightp=2 / keyint=250 / keyint_min=23 / scenecut=40 / intra_refresh=0 / rc=2pass / mbtree=0 / bitrate=8577 / ratetol=1.0 / qcomp=0.70 / qpmin=0 / qpmax=69 / qpstep=4 / cplxblur=20.0 / qblur=0.5 / ip_ratio=1.40 / pb_ratio=1.30 / aq=2:1.00
    Язык : English
    Default : Да
    Forced : Нет

    Аудио #1
    Идентификатор : 2
    Формат : AC-3
    Формат/Информация : Audio Coding 3
    Расширение режима : CM (complete main)
    Параметр Endianness формата : Big
    Идентификатор кодека : A_AC3
    Продолжительность : 1 ч. 25 м.
    Вид битрейта : Постоянный
    Битрейт : 448 Кбит/сек
    Каналы : 6 каналов
    Расположение каналов : Front: L C R, Side: L R, LFE
    Частота : 48,0 КГц
    Битовая глубина : 16 бит
    Метод сжатия : С потерями
    Размер потока : 273 Мбайт (4%)
    Язык : Russian
    Default : Да
    Forced : Нет

    Аудио #2
    Идентификатор : 3
    Формат : DTS
    Формат/Информация : Digital Theater Systems
    Режим : 16
    Параметр Endianness формата : Big
    Идентификатор кодека : A_DTS
    Продолжительность : 1 ч. 25 м.
    Вид битрейта : Постоянный
    Битрейт : 1509 Кбит/сек
    Каналы : 6 каналов
    Расположение каналов : Front: L C R, Side: L R, LFE
    Частота : 48,0 КГц
    Битовая глубина : 24 бит
    Метод сжатия : С потерями
    Размер потока : 919 Мбайт (14%)
    Язык : English
    Default : Нет
    Forced : Нет

    Скриншоты



    Размер: 6.26 GB (6722382475 Bytes)

    Кровь искупления / Blood of Redemption (2013) BDRip 1080p | L скачать через торрент бесплатно
    загрузка...
    Рейтинг →
     (голосов: 1, оценка 4/5, голосовать можно 1 раз )

    Другие торренты по теме:

  • Кровь искупления / Blood of Redemption (2013) BDRip-AVC от HELLYWOOD | L скачать через торрент бесплатно
  • Кровь искупления / Blood of Redemption (2013) BDRemux 1080p | L скачать через торрент бесплатно
  • Кровь искупления / Blood of Redemption (2013) BDRip 720p | L скачать через торрент бесплатно
  • Кровь искупления / Blood of Redemption (2013) HDRip от INTERCINEMA | L скачать через торрент бесплатно
  • Кровь искупления / Blood of Redemption (2013) HDRip от BitTracker | L


    • Комментарии (0):

      Информация

      Информация

        Посетители, находящиеся в группе Гости, не могут оставлять комментарии в данной новости.

        ↓ Меню



        ↓ Опрос

        А Вы добавили сайт в закладки?
        Да
        Не


        Top 10 за месяц (Фильмы)