.
Авторизация | Регистрация
Хочешь лучшие торренты? Добавь свой email!
Добавить
» » Мерзлая земля / The Frozen Ground (2013) BDRip от Youtracker | D | скачать через торрент бесплатно




    Мерзлая земля / The Frozen Ground (2013) BDRip от Youtracker | D | скачать через торрент бесплатно

    Опубликовал: Админ | Дата: 27-02-2015, 11:09 | Просмотров: 337

    Мерзлая земля / The Frozen Ground
    Охотник становится жертвой



    Страна: США / Sakonnet Capital Partners, Valentina Films
    Жанр: триллер, криминал, биография
    Год выпуска: 2013
    Продолжительность: 01:45:33

    Перевод: Профессиональный (полное дублирование) Дубляж не кинотеатральный

    Режиссер: Скотт Уокер / Scott Walker

    В ролях: Николас Кейдж, Джон Кьюсак, Ванесса Энн Хадженс, Дин Норрис, Рада Митчелл, Джоди Лин О’Кифи, Кэтрин ЛаНаса, Фифти Сент, Джина Мантенья, Мэтт Джералд

    Описание: Все были уверены, что Роберт Хансен — приличный семьянин, владелец пекарни и славный охотник. Никто не подозревал, что на самом деле он — безжалостный маньяк, который похитил и убил более двадцати женщин. И только 17-летней Синди Полсон удалось сбежать от убийцы. Она наводит на след маньяка полицейского, который начинает опасное расследование. Ему никто не верит: Хансен — слишком приличный человек для такого обвинения… Но упорный коп знает свое дело и должен дойти до конца…



    Релиз: |

    Автор рипа: _Flash

    Качество: BDRip BDRemux 1080p
    Формат: AVI
    Видео кодек: XviD
    Аудио кодек: AC3
    Видео: 720x304, 1575 Кбит/сек, 23,976 кадра/сек, Бит/Пикс: 0.300
    Аудио: 384 Кбит/сек, 48,0 КГц, 16 бит, 6 канала(ов), AC-3


    MediaInfo

    Общее
    Полное имя : D:The.Frozen.Ground.2013.BDRip.D.YTN.By_Flash.avi
    Формат : AVI
    Формат/Информация : Audio Video Interleave
    Размер файла : 1,45 Гбайт
    Продолжительность : 1 ч. 45 м.
    Общий поток : 1968 Кбит/сек
    Программа кодирования : VirtualDubMod 1.5.10.3 | www.virtualdub-fr.org || (build 2550/release)
    Библиотека кодирования : VirtualDubMod build 2550/release

    Видео
    Идентификатор : 0
    Формат : MPEG-4 Visual
    Профиль формата : Advanced Simple@L5
    Параметр BVOP формата : 1
    Параметр QPel формата : Нет
    Параметр GMC формата : Без точки перехода
    Параметр матрицы формата : Выборочная
    Идентификатор кодека : XVID
    Идентификатор кодека/Подсказка : XviD
    Продолжительность : 1 ч. 45 м.
    Битрейт : 1575 Кбит/сек
    Ширина : 720 пикселей
    Высота : 304 пикселя
    Соотношение сторон : 2,35:1
    Частота кадров : 23,976 кадра/сек
    Цветовое пространство : YUV
    Субдискретизация насыщенности : 4:2:0
    Битовая глубина : 8 бит
    Тип развёртки : Прогрессивная
    Метод сжатия : С потерями
    Бит/(Пиксели*Кадры) : 0.300
    Размер потока : 1,16 Гбайт (80%)
    Библиотека кодирования : XviD 65

    Аудио
    Идентификатор : 1
    Формат : AC-3
    Формат/Информация : Audio Coding 3
    Расширение режима : CM (complete main)
    Параметр Endianness формата : Big
    Идентификатор кодека : 2000
    Продолжительность : 1 ч. 45 м.
    Вид битрейта : Постоянный
    Битрейт : 384 Кбит/сек
    Каналы : 6 каналов
    Расположение каналов : Front: L C R, Side: L R, LFE
    Частота : 48,0 КГц
    Битовая глубина : 16 бит
    Метод сжатия : С потерями
    Размер потока : 290 Мбайт (20%)
    Выравнивание : Разделение по промежуткам
    Продолжительность промежутка : 42 мс. (1,00 видеокадр)
    Время предзагрузки промежутка : 500 мс.



    Скриншоты



    Залил: Flash_
    Размер: 1.45 GB (1558468608 Bytes)

    Мерзлая земля / The Frozen Ground (2013) BDRip от Youtracker | D | скачать через торрент бесплатно
    загрузка...
    Рейтинг →
     (голосов: 1, оценка 3/5, голосовать можно 1 раз )

    Другие торренты по теме:

  • Мерзлая земля / The Frozen Ground (2013) HD 1080p | Трейлер
  • Мерзлая земля / The Frozen Ground (2013) WEB-DLRip | Звук с TS
  • Мерзлая земля / The Frozen Ground (2013) WEB-DLRip-AVC | Звук с TS
  • Мерзлая земля / The Frozen Ground (2013) WEB-DLRip-AVC | Чистый звук
  • Мерзлая земля / The Frozen Ground (2013) WEB-DLRip | Чистый звук
  • Мерзлая земля / The Frozen Ground (2013) WEB-DLRip-AVC от Youtracker | Чистый звук
  • Мерзлая земля / The Frozen Ground (2013) WEB-DLRip от Scarabey | D | Чистый звук
  • Мерзлая земля / The Frozen Ground (2013) WEB-DLRip от Scarabey | D


    • Комментарии (0):

      Информация

      Информация

        Посетители, находящиеся в группе Гости, не могут оставлять комментарии в данной новости.

        ↓ Меню



        ↓ Опрос

        А Вы добавили сайт в закладки?
        Да
        Не


        Top 10 за месяц (Фильмы)