.
Авторизация | Регистрация
Хочешь лучшие торренты? Добавь свой email!
Добавить
» » Только Бог простит / Only God Forgives (2013) BDRip 1080p | L скачать через торрент бесплатно




    Только Бог простит / Only God Forgives (2013) BDRip 1080p | L скачать через торрент бесплатно

    Опубликовал: Админ | Дата: 27-02-2015, 11:09 | Просмотров: 906



    Название: Только Бог простит
    Оригинальное название: Only God Forgives
    Год выпуска: 2013
    Жанр: Триллер, драма, криминал
    Режиссер: Николас Виндинг Рефн
    В ролях: Райан Гослинг, Кристин Скотт Томас, Гордон Браун, Том Берк, Чарли Руедпокэнон

    Описание: Джулиан, бежавший от американского правосудия, руководит в Бангкоке клубом тайского бокса, который служит ему прикрытием для торговли наркотиками. Его мать, глава крупной преступной организации, приезжает из США, чтобы забрать тело своего любимого сына Билли: брата Джулиана только что убили за зверскую расправу над молодой проституткой. Охваченная яростью и жаждой мести мать требует, чтобы Джулиан нашел и покарал убийц. Молодому человеку придется столкнуться с Чангом — странным полицейским на пенсии, которого обожают его коллеги.

    Выпущено: Франция, Таиланд, США, Швеция, A Grand Elephant, Bold Films, Film i V?st
    Продолжительность: 01:29:29
    Перевод: Любительский многоголосый HamsterStudio



    Качество: BDRip 1080p
    Видео: MPEG-4 AVC, 10.1 Mбит/с, 1920x1036
    Аудио rus: АС3, 6 ch, 448 Кбит/с
    Аудио eng: DTS, 6 ch, 1509 Кбит/с
    Субтитры: Русские, английские

    Семпл

    Инфо
    Complete name : Only.God.Forgives.2013.x264.BDRip.1080p.mkv
    Format : Matroska
    Format version : Version 2
    File size : 7.68 GiB
    Duration : 1h 29mn
    Overall bit rate : 12.3 Mbps
    Encoded date : UTC 2013-09-24 16:36:36
    Writing application : mkvmerge v5.8.0 (;No Sleep / Pillow;) built on Sep 2 2012 15:37:04
    Writing library : libebml v1.2.3 libmatroska v1.3.0

    Video
    ID : 1
    Format : AVC
    Format/Info : Advanced Video Codec
    Format profile : High@L4.1
    Format settings, CABAC : Yes
    Format settings, ReFrames : 4 frames
    Codec ID : V_MPEG4/ISO/AVC
    Duration : 1h 29mn
    Bit rate : 10.1 Mbps
    Width : 1 920 pixels
    Height : 1 036 pixels
    Display aspect ratio : 1.85:1
    Frame rate mode : Constant
    Frame rate : 23.976 fps
    Color space : YUV
    Chroma subsampling : 4:2:0
    Bit depth : 8 bits
    Scan type : Progressive
    Bits/(Pixel*Frame) : 0.212
    Stream size : 6.31 GiB (82%)
    Writing library : x264 core 138 r2358 9e941d1
    Encoding settings : cabac=1 / ref=4 / deblock=1:-3:-3 / analyse=0x3:0x133 / me=umh / subme=10 / psy=1 / psy_rd=1.00:0.00 / mixed_ref=1 / me_range=32 / chroma_me=1 / trellis=2 / 8x8dct=1 / cqm=0 / deadzone=21,11 / fast_pskip=1 / chroma_qp_offset=-2 / threads=12 / lookahead_threads=2 / sliced_threads=0 / nr=0 / decimate=1 / interlaced=0 / bluray_compat=0 / constrained_intra=0 / bframes=8 / b_pyramid=2 / b_adapt=2 / b_bias=0 / direct=3 / weightb=1 / open_gop=0 / weightp=2 / keyint=240 / keyint_min=23 / scenecut=40 / intra_refresh=0 / rc_lookahead=60 / rc=crf / mbtree=0 / crf=18.5 / qcomp=0.60 / qpmin=0 / qpmax=69 / qpstep=4 / vbv_maxrate=50000 / vbv_bufsize=50000 / crf_max=0.0 / nal_hrd=none / ip_ratio=1.40 / pb_ratio=1.30 / aq=1:1.00
    Language : English
    Default : Yes
    Forced : Yes

    Audio #1
    ID : 2
    Format : AC-3
    Format/Info : Audio Coding 3
    Mode extension : CM (complete main)
    Format settings, Endianness : Big
    Codec ID : A_AC3
    Duration : 1h 29mn
    Bit rate mode : Constant
    Bit rate : 448 Kbps
    Channel(s) : 6 channels
    Channel positions : Front: L C R, Side: L R, LFE
    Sampling rate : 48.0 KHz
    Bit depth : 16 bits
    Compression mode : Lossy
    Stream size : 287 MiB (4%)
    Language : Russian
    Default : Yes
    Forced : Yes

    Audio #2
    ID : 3
    Format : DTS
    Format/Info : Digital Theater Systems
    Mode : 16
    Format settings, Endianness : Big
    Codec ID : A_DTS
    Duration : 1h 29mn
    Bit rate mode : Constant
    Bit rate : 1 509 Kbps
    Channel(s) : 6 channels
    Channel positions : Front: L C R, Side: L R, LFE
    Sampling rate : 48.0 KHz
    Bit depth : 16 bits
    Compression mode : Lossy
    Stream size : 966 MiB (12%)
    Language : English
    Default : No
    Forced : No

    Text #1
    ID : 4
    Format : UTF-8
    Codec ID : S_TEXT/UTF8
    Codec ID/Info : UTF-8 Plain Text
    Language : Russian
    Default : No
    Forced : No

    Text #2
    ID : 5
    Format : UTF-8
    Codec ID : S_TEXT/UTF8
    Codec ID/Info : UTF-8 Plain Text
    Language : English
    Default : No
    Forced : No

    Menu
    00:00:00.000 : en:00:00:00.000
    00:06:43.320 : en:00:06:43.320
    00:17:57.285 : en:00:17:57.285
    00:23:58.312 : en:00:23:58.312
    00:29:55.585 : en:00:29:55.585
    00:37:12.814 : en:00:37:12.814
    00:46:54.353 : en:00:46:54.353
    00:54:06.994 : en:00:54:06.994
    01:01:20.260 : en:01:01:20.260
    01:08:08.710 : en:01:08:08.710
    01:15:42.872 : en:01:15:42.872
    01:26:46.159 : en:01:26:46.159
    Скриншоты


    Размер: 7.68 GB (8250861359 Bytes)

    Только Бог простит / Only God Forgives (2013) BDRip 1080p | L скачать через торрент бесплатно
    загрузка...
    Рейтинг →
     (голосов: 1, оценка 3/5, голосовать можно 1 раз )

    Другие торренты по теме:

  • Только Бог простит / Only God Forgives (2013) HD 1080p | Трейлер
  • Только Бог простит / Only God Forgives (2013) WEB-DLRip | HamsterStudio
  • Только Бог простит / Only God Forgives (2013) BDRip-AVC от MediaClub скачать через торрент бесплатно
  • Только Бог простит / Only God Forgives (2013) Blu-ray Remux 1080p | L скачать через торрент бесплатно
  • Только Бог простит / Only God Forgives (2013) BDRip-AVC от HELLYWOOD| L скачать через торрент бесплатно
  • Только Бог простит / Only God Forgives (2013) BDRip 720p от leonardo 59 Scarabey | L скачать через торрент бесплатно
  • Только Бог простит / Only God Forgives (2013) BDRip-AVC от leonardo 59 Scarabey | L скачать через торрент бесплатно
  • Только Бог простит (2013) скачать через торрент бесплатно


    • Комментарии (0):

      Информация

      Информация

        Посетители, находящиеся в группе Гости, не могут оставлять комментарии в данной новости.

        ↓ Меню



        ↓ Опрос

        А Вы добавили сайт в закладки?
        Да
        Не


        Top 10 за месяц (Фильмы)