.
Авторизация | Регистрация
» » Черный рыцарь / Black Knight (2001) HDRip от Youtracker скачать через торрент бесплатно




    Черный рыцарь / Black Knight (2001) HDRip от Youtracker скачать через торрент бесплатно

    Опубликовал: Админ | Дата: 27-02-2015, 11:09 | Просмотров: 290

    Черный рыцарь / Black Knight

    Год выпуска: 2001
    Страна: США
    Жанр: фэнтези, комедия, приключения
    Продолжительность: 01:35:34
    Перевод: Профессиональный (многоголосый, закадровый)
    Субтитры: нет

    Режиссер: Джил Джангер / Gil Junger

    В ролях: Мартин Лоуренс, Марша Томасон, Том Уилкинсон, Винсент Риган, Кевин Конуэй, Эрик Дженсен, Хелен Кэри, Майкл Бургесс, Изабелл Монк, Марк Джеффри Миллер, Зэк Ханнер, Ричард Фуллертон, Грег Купер

    Описание: Был обычный летний день. Джамал, как обычно, чистил ров в городском парке развлечений Средневековый мир. Но судьба уже готовила ему самое веселое и безумное приключение в его жизни... Случайно перевернувшись через перила моста, Джамал падает в воду и выныривает в Средневековой Англии! Принятый за посла из Нормандии из-за странной одежды и манеры говорить, он знакомится с очаровательной заговорщицей, которая хочет свергнуть короля-тирана. Затянутый в заговор, Джамал между делом планирует открытие сети ресторанов быстрого питания, соблазняет дочку короля и запугивает до смерти всех горожан своими колдовскими способностями...



    Качество: HDRip BDRip 1080p
    Формат: AVI
    Видео кодек: XviD
    Аудио кодек: AC3
    Видео: 720x304 (2.37:1), 23.976 fps, XviD build 73 ~1794 kbps avg, 0.34 bit/pixel
    Аудио: 48 kHz, AC3 Dolby Digital, 3/2 (L,C,R,l,r) LFE ch, ~384 kbps
    Раздача от:
    Скриншоты

    MI
    D:Мои рипыChernyi.Rycar.2001.HDRip.dexter_lex.avi
    General
    Complete name : D:Мои рипыChernyi.Rycar.2001.HDRip.dexter_lex.avi
    Format : AVI
    Format/Info : Audio Video Interleave
    File size : 1.46 GiB
    Duration : 1h 35mn
    Overall bit rate : 2 188 Kbps
    Writing application : VirtualDubMod 1.5.10.3 | www.virtualdub-fr.org || (build 2550/release)
    Writing library : VirtualDubMod build 2550/release
    Video #0
    ID : 0
    Format : MPEG-4 Visual
    Format profile : Advanced Simple@L5
    Format settings, BVOP : 1
    Format settings, QPel : No
    Format settings, GMC : No warppoints
    Format settings, Matrix : Custom
    Codec ID : XVID
    Codec ID/Hint : XviD
    Duration : 1h 35mn
    Bit rate : 1 795 Kbps
    Width : 720 pixels
    Height : 304 pixels
    Display aspect ratio : 2.35:1
    Frame rate : 23.976 fps
    Color space : YUV
    Chroma subsampling : 4:2:0
    Bit depth : 8 bits
    Scan type : Progressive
    Compression mode : Lossy
    Bits/(Pixel*Frame) : 0.342
    Stream size : 1.20 GiB (82%)
    Writing library : XviD 73
    Audio #1
    ID : 1
    Format : AC-3
    Format/Info : Audio Coding 3
    Mode extension : CM (complete main)
    Codec ID : 2000
    Duration : 1h 35mn
    Bit rate mode : Constant
    Bit rate : 384 Kbps
    Channel(s) : 6 channels
    Channel positions : Front: L C R, Side: L R, LFE
    Sampling rate : 48.0 KHz
    Bit depth : 16 bits
    Compression mode : Lossy
    Stream size : 263 MiB (18%)
    Alignment : Split accross interleaves
    Interleave, duration : 42 ms (1.00 video frame)
    Interleave, preload duration : 500 ms

    Размер: 1.46 GB (1569132544 Bytes)

    Черный рыцарь / Black Knight (2001) HDRip от Youtracker скачать через торрент бесплатно
    загрузка...
    Рейтинг →
     (голосов: 1, оценка 3/5, голосовать можно 1 раз )

    Другие торренты по теме:

  • Черный рыцарь / Black Knight (2001) Blu-Ray Remux 1080p | P, A торрент скачать бесплатно
  • Черный рыцарь / Black Knight (2001) BDRip-AVC от HELLYWOOD | P торрент скачать бесплатно
  • Черный рыцарь / Black Knight (2001) BDRip от HQCLUB торрент скачать бесплатно
  • Черный рыцарь / Black Knight (2001) BDRip 720p от HELLYWOOD торрент скачать бесплатно
  • Черный рыцарь / The Black Knight (1954) DVDRip | L1 скачать через торрент бесплатно
  • Черный рыцарь / Black Knight (2001) BDRip-AVC от New-Team | P торрент скачать бесплатно


    • Комментарии (0):

      Информация

      Информация

        Посетители, находящиеся в группе Гости, не могут оставлять комментарии в данной новости.

        ↓ Меню



        ↓ Опрос

        А Вы добавили сайт в закладки?
        Да
        Не


        Top 10 за неделю (Фильмы)