.
Авторизация | Регистрация
» » Бог Богов Махадев / Девон Ке Дев Махадев / Devon Ke Dev Mahadev (2011) DVDRip | L1 скачать через торрент бесплатно




    Бог Богов Махадев / Девон Ке Дев Махадев / Devon Ke Dev Mahadev (2011) DVDRip | L1 скачать через торрент бесплатно

    Опубликовал: Админ | Дата: 27-02-2015, 11:09 | Просмотров: 908



    Информация о фильме

    Название: Девон Ке Дев Махадев (Бог Богов Махадев)
    Оригинальное название: Devon Ke Dev Mahadev
    Год выпуска: 2011
    Жанр: Драма, Приключения, Семейный

    Перевод: Одноголосый закадровый, любительский
    Вид субтитров: Отсутствуют




    Дата мировой премьеры: 18 декабря 2011 года

    Режиссер: Нихил Синха (Nikhil Sinha), Маниш Сингх (Manish Singh)
    Актеры: Sonarika Bhadoria, Chari Asopa, Арун Бали, Vicky Batra, Annapurna Vitthal, Bhairi, Rajeev Bharadwaj, Прабхат Бхаттачария, Ахсаас Чанна, Шайлеш Датар, Панкадж Дхир и другие.

    Всем кто интересуется документальной информацией и информацией для разума и ума и своего совершенствования. Рекомендую посетить мои раздачи:
    http://rutor.org/browse/0/0/127689/0

    Описание фильма:
    Это захватывающая история о Господе Шиве и Богине Шакти. История яркой любви, долгой разлуки и неизбежного воссоединения. Полная глубины, очень драматичная, поучительная и возвышенная сага...

    Всем кто интересуеться сериалами тематики Древних Ведических писаний, настойчиво рекомендую посмотреть полностью снятый и переведенный на русккий язык серал:
    Вишну Пурана / Vishnu Puran 120 серий из 120 (2003) DVDRip
    27Гб
    Вишну Пурана / Vishnu Puran 120 серий из 120 (2003) DVDRip

    Дополнительная информация:

    Премьера состоялась 18 декабря 2011 года, когда сериал начал транслироваться по индийскому ТВ, в настоящее время продолжает сниматься.

    МI
    Общее
    Полное имя Devon Ke Dev Mahadev Disk1 Rus.avi
    Формат : AVI
    Формат/Информация : Audio Video Interleave
    Профиль формата : OpenDML
    Размер файла : 2,18 Гбайт
    Продолжительность : 2 ч. 59 м.
    Общий поток : 1739 Кбит/сек
    Программа кодирования : VirtualDubMod 1.5.10.2 (build 2540/release)
    Библиотека кодирования : VirtualDub build 32842/release

    Видео
    Идентификатор : 0
    Формат : MPEG-4 Visual
    Профиль формата : Advanced Simple@L5
    Параметр BVOP формата : 1
    Параметр QPel формата : Нет
    Параметр GMC формата : Без точки перехода
    Параметр матрицы формата : Выборочная
    Идентификатор кодека : XVID
    Идентификатор кодека/Подсказка : XviD
    Продолжительность : 2 ч. 59 м.
    Битрейт : 1343 Кбит/сек
    Ширина : 720 пикселей
    Высота : 400 пикселей
    Соотношение сторон : 16:9
    Частота кадров : 24,975 кадров/сек
    Цветовое пространство : YUV
    Субдискретизация насыщенности : 4:2:0
    Битовая глубина : 8 бит
    Тип развёртки : Прогрессивная
    Метод сжатия : С потерями
    Бит/(Пиксели*Кадры) : 0.187
    Размер потока : 1,68 Гбайт (77%)
    Библиотека кодирования : XviD 1.2.1 (UTC 2008-12-04)

    Аудио
    Идентификатор : 1
    Формат : AC-3
    Формат/Информация : Audio Coding 3
    Расширение режима : CM (complete main)
    Параметр Endianness формата : Big
    Идентификатор кодека : 2000
    Продолжительность : 2 ч. 59 м.
    Вид битрейта : Постоянный
    Битрейт : 384 Кбит/сек
    Каналы : 2 канала
    Расположение каналов : Front: L R
    Частота : 48,0 КГц
    Битовая глубина : 16 бит
    Метод сжатия : С потерями
    Размер потока : 493 Мбайт (22%)
    Выравнивание : Соединение по промежуткам
    Продолжительность промежутка : 40 мс. (1,00 видеокадр)
    Время предзагрузки промежутка : 512 мс.





    Продолжительность: 02:59:38
    Качество видео: DVDRip
    Сэмпл: Скачать

    качество: DVDRip
    формат: AVI
    Видео: XviD, 720x400 (1.80:1), 1345 Kb/s, 24.975 fps
    Аудио: AC3 Dolby Digital, 383Kbps, 48 kHz

    Скриншоты












    Залил: Rassvet2
    Размер: 6.55 GB (7030969868 Bytes)

    Бог Богов Махадев / Девон Ке Дев Махадев / Devon Ke Dev Mahadev (2011) DVDRip | L1 скачать через торрент бесплатно
    загрузка...
    Рейтинг →
     (голосов: 1, оценка 4/5, голосовать можно 1 раз )

    Другие торренты по теме:

  • Бог Богов Махадев / Девон Ке Дев Махадев / Devon Ke Dev Mahadev (2011) DVDRip торрент скачать бесплатно
  • Очень приятно, Бог / Kami-sama Hajimemashita TV (2012) HDTVRip-AVC 720р l Trina D Stefan торрент скачать бесплатно
  • Фи Брейн: Загадка Бога 2 / Phi Brain: Kami no Puzzle (2012) HDTVRip 720 | Persona99 торрент скачать бесплатно
  • Demigod. Битвы богов (2009) PC | RePack от R.G. Механики торрент скачать бесплатно
  • Алексеев Сергей - Аз Бога Ведаю (2012) MP3 торрент скачать бесплатно
  • Доспехи Бога 3: Миссия Зодиак / Chinese Zodiac (2012) TS | L1 торрент скачать бесплатно
  • Оправданный Терроризм - Под символом солнца и бога войны (2012) MP3 торрент скачать бесплатно
  • Will Rock: Гибель богов (2003) PC | Лицензия торрент скачать бесплатно


    • Комментарии (0):

      Информация

      Информация

        Посетители, находящиеся в группе Гости, не могут оставлять комментарии в данной новости.

        ↓ Меню



        ↓ Опрос

        А Вы добавили сайт в закладки?
        Да
        Не


        Top 10 за неделю (Фильмы)