.
Авторизация | Регистрация
Хочешь лучшие торренты? Добавь свой email!
Добавить
» » Судная ночь / The Purge (2013) BDRip 1080p | D | iTunes Russia торрент скачать бесплатно




    Судная ночь / The Purge (2013) BDRip 1080p | D | iTunes Russia торрент скачать бесплатно

    Опубликовал: Админ | Дата: 27-02-2015, 11:09 | Просмотров: 326



    Год выпуска: 2013
    Производство: США, Франция
    Жанр: Триллер, Ужасы, Боевик
    Продолжительность: 01:25:18
    Перевод: Дублированный iTunes Russia
    Субтитры: Английские

    Дата мировой премьеры: 2 мая 2013
    Дата российской премьеры: 12 июня 2013


    Режиссер: Джеймс ДеМонако



    В ролях: Итан Хоук, Лина Хиди, Аделаида Кэйн, Макс Буркхолдер, Эдвин Ходж, Тони Оллер, Риз Уэйкфилд, Джон Уэселкауч

    Описание фильма:
    Мир будущего — мир без преступности… безработицы… войн. И все это благодаря одной ночи в году, когда можно отправить на тот свет любого — злобного босса, шумных соседей, надоевших родственников. В Судную ночь дозволено все — главное дожить до рассвета.



    Качество: BDRip (1080p)
    Видео: MPEG-4 AVC, 9446 Кбит/с, 1920x800
    Аудио: Русский (AC3, 6 ch, 384 Кбит/с), английский (DTS, 6 ch, 1509 Кбит/с)

    MediaInfo:
    Format : Matroska
    Format version : Version 4 / Version 2
    File size : 6.76 GiB
    Duration : 1h 25mn
    Overall bit rate : 11.3 Mbps
    Encoded date : UTC 2013-09-27 12:42:09
    Writing application : mkvmerge v6.3.0 (;You can;t stop me!;) built on Jun 28 2013 20:09:41
    Writing library : libebml v1.3.0 libmatroska v1.4.0

    Video
    ID : 1
    Format : AVC
    Format/Info : Advanced Video Codec
    Format profile : High@L4.1
    Format settings, CABAC : Yes
    Format settings, ReFrames : 5 frames
    Codec ID : V_MPEG4/ISO/AVC
    Duration : 1h 25mn
    Bit rate : 9 446 Kbps
    Width : 1 920 pixels
    Height : 800 pixels
    Display aspect ratio : 2.40:1
    Frame rate mode : Constant
    Frame rate : 23.976 fps
    Color space : YUV
    Chroma subsampling : 4:2:0
    Bit depth : 8 bits
    Scan type : Progressive
    Bits/(Pixel*Frame) : 0.256
    Stream size : 5.50 GiB (81%)
    Title : The.Purge.2013
    Writing library : x264 core 138 r2356 a1d3d17
    Encoding settings : cabac=1 / ref=5 / deblock=1:-3:-3 / analyse=0x3:0x113 / me=umh / subme=10 / psy=1 / psy_rd=1.05:0.10 / mixed_ref=1 / me_range=32 / chroma_me=1 / trellis=2 / 8x8dct=1 / cqm=0 / deadzone=21,11 / fast_pskip=0 / chroma_qp_offset=-2 / threads=18 / lookahead_threads=1 / sliced_threads=0 / nr=0 / decimate=1 / interlaced=0 / bluray_compat=0 / constrained_intra=0 / bframes=5 / b_pyramid=2 / b_adapt=2 / b_bias=0 / direct=3 / weightb=1 / open_gop=0 / weightp=2 / keyint=250 / keyint_min=23 / scenecut=40 / intra_refresh=0 / rc=2pass / mbtree=0 / bitrate=9446 / ratetol=1.0 / qcomp=0.70 / qpmin=0 / qpmax=69 / qpstep=4 / cplxblur=20.0 / qblur=0.5 / ip_ratio=1.40 / pb_ratio=1.30 / aq=2:1.00
    Language : English
    Default : Yes
    Forced : Yes

    Audio #1
    ID : 2
    Format : AC-3
    Format/Info : Audio Coding 3
    Mode extension : CM (complete main)
    Format settings, Endianness : Big
    Codec ID : A_AC3
    Duration : 1h 25mn
    Bit rate mode : Constant
    Bit rate : 384 Kbps
    Channel(s) : 6 channels
    Channel positions : Front: L C R, Side: L R, LFE
    Sampling rate : 48.0 KHz
    Bit depth : 16 bits
    Compression mode : Lossy
    Stream size : 234 MiB (3%)
    Title : DD 5.1 @ 384 kbps - Dub, iTunes
    Language : Russian
    Default : Yes
    Forced : Yes

    Audio #2
    ID : 3
    Format : DTS
    Format/Info : Digital Theater Systems
    Mode : 16
    Format settings, Endianness : Big
    Codec ID : A_DTS
    Duration : 1h 25mn
    Bit rate mode : Constant
    Bit rate : 1 509 Kbps
    Channel(s) : 6 channels
    Channel positions : Front: L C R, Side: L R, LFE
    Sampling rate : 48.0 KHz
    Bit depth : 24 bits
    Compression mode : Lossy
    Stream size : 921 MiB (13%)
    Title : DTS-CORE 1536K ENG
    Language : English
    Default : No
    Forced : No

    Text
    ID : 4
    Format : UTF-8
    Codec ID : S_TEXT/UTF8
    Codec ID/Info : UTF-8 Plain Text
    Language : English
    Default : No
    Forced : No
    Скриншоты

    Размер: 6.76 GB (7257463099 Bytes)

    Судная ночь / The Purge (2013) BDRip 1080p | D | iTunes Russia торрент скачать бесплатно
    загрузка...
    Рейтинг →
     (голосов: 1, оценка 4/5, голосовать можно 1 раз )

    Другие торренты по теме:

  • Судная ночь / The Purge (2013) HD 1080p | Трейлер
  • Судная ночь / The Purge (2013) BDRip-AVC | D | iTunes Russia
  • Судная ночь / The Purge (2013) BDRip 720p от leonardo 59 Scarabey | iTunes Russia скачать через торрент бесплатно
  • Судная ночь / The Purge (2013) BDRip 720p от DHT-Movies | iTunes Russia скачать через торрент бесплатно
  • Судная ночь / The Purge (2013) BDRip-AVC от HELLYWOOD | iTunes Russia скачать через торрент бесплатно
  • Судная ночь / The Purge (2013) BDRip 720p от MULTIBITS | iTunes Russia скачать через торрент бесплатно
  • Судная ночь / The Purge (2013) BDRip 720p от HELLYWOOD | iTunes Russia
  • Судная ночь / The Purge (2013) BDRip-AVC от leonardo 59 Scarabey | iTunes Russia


    • Комментарии (0):

      Информация

      Информация

        Посетители, находящиеся в группе Гости, не могут оставлять комментарии в данной новости.

        ↓ Меню



        ↓ Опрос

        А Вы добавили сайт в закладки?
        Да
        Не


        Top 10 за месяц (Фильмы)