.
Авторизация | Регистрация
» » Эффект колибри / Hummingbird (2013) BDRip 1080p | US-Transfer | Лицензия скачать через торрент бесплатно




    Эффект колибри / Hummingbird (2013) BDRip 1080p | US-Transfer | Лицензия скачать через торрент бесплатно

    Опубликовал: Админ | Дата: 27-02-2015, 11:09 | Просмотров: 308



    Информация о фильме
    Название: Эффект колибри
    Оригинальное название: Hummingbird
    Год выпуска: 2013
    Жанр: Боевик, триллер
    Выпущено: США, IM Global, Shoebox Films
    Режиссер: Стивен Найт
    В ролях: Джейсон Стэйтем, Агата Бузек, Вики МакКлюр, Бенедикт Вонг, Ли Асквит-Коу, Ли Николас Харрис, Крис Коулин, Санти Скинелли, Дэвид Брэдли (III), Шиван Хьюлетт

    О фильме: Джоуи Джонс, бывший спецназовец, пытается избавиться от мучительных воспоминаний в лондонских трущобах. Чтобы восстановить справедливость в этом перевернутом мире, он выдает себя за другого человека и превращается в беспощадного ангела мести, который готов беспощадно расправляться с преступниками всех мастей. Изменить его сможет только неожиданная любовь…



    Файл
    Качество: BDRip (1080p)
    Видео: MPEG-4 AVC, 12.3 Мбит/с, 1920x800
    Аудио: Русский (AC3, 6 ch, 448 Кбит/с), (DTS, 6 ch, 1536 Кбит/с), английский (DTS, 6 ch, 1510 Кбит/с)
    Размер: 11.05 ГБ
    Продолжительность: 01:40:22
    Перевод: Дублированный лицензия
    Субтитры: Русские, английские
    Сравнение трансферов
    http://screenshotcomparison.com/comparison/42715
    И http://fastpic.ru/view/59/2013/0927/65ca46eb568d27774ec164c9551518a9.png.html

    MI
    Общее
    Уникальный идентификатор : 208659662494234018978063028403956245507 (0x9CFA63A3D02082A19674B87B59DA6403)
    Полное имя : D:Hummingbird.2013.1080p.US-Transfer.BluRay.DTS.x264-DON.mkv
    Формат : Matroska
    Версия формата : Version 2
    Размер файла : 11,0 Гбайт
    Продолжительность : 1 ч. 40 м.
    Общий поток : 15,8 Мбит/сек
    Дата кодирования : UTC 2013-09-28 13:18:15
    Программа кодирования : mkvmerge v6.3.0 (;You can;t stop me!;) built on Jun 28 2013 20:09:41
    Библиотека кодирования : libebml v1.3.0 libmatroska v1.4.0

    Видео
    Идентификатор : 1
    Формат : AVC
    Формат/Информация : Advanced Video Codec
    Профиль формата : High@L4.1
    Параметр CABAC формата : Да
    Параметр ReFrames формата : 5 кадров
    Идентификатор кодека : V_MPEG4/ISO/AVC
    Продолжительность : 1 ч. 40 м.
    Битрейт : 12,3 Мбит/сек
    Ширина : 1920 пикселей
    Высота : 800 пикселей
    Соотношение сторон : 2,40:1
    Режим частоты кадров : Постоянный
    Частота кадров : 23,976 кадра/сек
    Цветовое пространство : YUV
    Субдискретизация насыщенности : 4:2:0
    Битовая глубина : 8 бит
    Тип развёртки : Прогрессивная
    Бит/(Пиксели*Кадры) : 0.334
    Размер потока : 8,40 Гбайт (76%)
    Заголовок : 1080p x264 L4.1 @ 12 Mbps
    Библиотека кодирования : x264 core 138 r2358kMod 9e941d1
    Настройки программы : cabac=1 / ref=5 / deblock=1:-3:-3 / analyse=0x3:0x133 / me=umh / subme=10 / psy=1 / fade_compensate=0.00 / psy_rd=1.20:0.00 / mixed_ref=1 / me_range=24 / chroma_me=1 / trellis=2 / 8x8dct=1 / cqm=0 / deadzone=21,11 / fast_pskip=0 / chroma_qp_offset=-2 / threads=3 / lookahead_threads=1 / sliced_threads=0 / nr=0 / decimate=0 / interlaced=0 / bluray_compat=0 / constrained_intra=0 / bframes=3 / b_pyramid=2 / b_adapt=2 / b_bias=0 / direct=3 / weightb=1 / open_gop=0 / weightp=2 / keyint=250 / keyint_min=23 / scenecut=40 / intra_refresh=0 / rc_lookahead=60 / rc=2pass / mbtree=0 / bitrate=12290 / ratetol=1.0 / qcomp=0.60 / qpmin=0 / qpmax=69 / qpstep=4 / cplxblur=20.0 / qblur=0.5 / vbv_maxrate=50000 / vbv_bufsize=62500 / nal_hrd=none / ip_ratio=1.20 / pb_ratio=1.10 / aq=3:0.90
    Язык : English
    Default : Да
    Forced : Нет

    Аудио #1
    Идентификатор : 2
    Формат : AC-3
    Формат/Информация : Audio Coding 3
    Расширение режима : CM (complete main)
    Параметр Endianness формата : Big
    Идентификатор кодека : A_AC3
    Продолжительность : 1 ч. 40 м.
    Вид битрейта : Постоянный
    Битрейт : 448 Кбит/сек
    Каналы : 6 каналов
    Расположение каналов : Front: L C R, Side: L R, LFE
    Частота : 48,0 КГц
    Битовая глубина : 16 бит
    Метод сжатия : С потерями
    Размер потока : 322 Мбайт (3%)
    Язык : Russian
    Default : Да
    Forced : Нет

    Аудио #2
    Идентификатор : 3
    Формат : DTS
    Формат/Информация : Digital Theater Systems
    Режим : 16
    Параметр Endianness формата : Big
    Идентификатор кодека : A_DTS
    Продолжительность : 1 ч. 40 м.
    Вид битрейта : Постоянный
    Битрейт : 1510 Кбит/сек
    Каналы : 6 каналов
    Расположение каналов : Front: L C R, Side: L R, LFE
    Частота : 48,0 КГц
    Битовая глубина : 16 бит
    Метод сжатия : С потерями
    Размер потока : 1,06 Гбайт (10%)
    Язык : Russian
    Default : Нет
    Forced : Нет

    Аудио #3
    Идентификатор : 4
    Формат : DTS
    Формат/Информация : Digital Theater Systems
    Режим : 16
    Параметр Endianness формата : Big
    Идентификатор кодека : A_DTS
    Продолжительность : 1 ч. 40 м.
    Вид битрейта : Постоянный
    Битрейт : 1509 Кбит/сек
    Каналы : 6 каналов
    Расположение каналов : Front: L C R, Side: L R, LFE
    Частота : 48,0 КГц
    Битовая глубина : 24 бит
    Метод сжатия : С потерями
    Размер потока : 1,06 Гбайт (10%)
    Заголовок : DTS Core 5.1 @ 1.5 Mbps
    Язык : English
    Default : Нет
    Forced : Нет

    Текст #1
    Идентификатор : 5
    Формат : UTF-8
    Идентификатор кодека : S_TEXT/UTF8
    Идентификатор кодека/Информация : UTF-8 Plain Text
    Язык : Russian
    Default : Нет
    Forced : Нет

    Текст #2
    Идентификатор : 6
    Формат : UTF-8
    Идентификатор кодека : S_TEXT/UTF8
    Идентификатор кодека/Информация : UTF-8 Plain Text
    Язык : English
    Default : Нет
    Forced : Нет

    Текст #3
    Идентификатор : 7
    Формат : UTF-8
    Идентификатор кодека : S_TEXT/UTF8
    Идентификатор кодека/Информация : UTF-8 Plain Text
    Заголовок : SDH
    Язык : English
    Default : Нет
    Forced : Нет

    Меню
    00:00:00.000 : en:00:00:00.000
    00:04:45.660 : en:00:04:45.660
    00:08:44.816 : en:00:08:44.816
    00:12:39.717 : en:00:12:39.717
    00:19:44.934 : en:00:19:44.934
    00:24:50.030 : en:00:24:50.030
    00:28:37.466 : en:00:28:37.466
    00:38:17.837 : en:00:38:17.837
    00:47:03.946 : en:00:47:03.946
    00:51:06.105 : en:00:51:06.105
    01:00:36.842 : en:01:00:36.842
    01:06:56.971 : en:01:06:56.971
    01:13:20.229 : en:01:13:20.229
    01:19:51.286 : en:01:19:51.286
    01:24:40.450 : en:01:24:40.450
    01:33:38.154 : en:01:33:38.154

    Скриншоты



    Размер: 11.05 GB (11863605502 Bytes)

    Эффект колибри / Hummingbird (2013) BDRip 1080p | US-Transfer | Лицензия скачать через торрент бесплатно
    загрузка...
    Рейтинг →
     (голосов: 1, оценка 4/5, голосовать можно 1 раз )

    Другие торренты по теме:

  • Эффект колибри / Hummingbird (2013) HD 1080p | Трейлер
  • Эффект колибри / Hummingbird (2013) WEB-DL 720p от Unionpeer | D | iTunes Russia
  • Эффект колибри / Hummingbird (2013) BDRip 720p от leonardo 59 Scarabey | iTunes Russia
  • Эффект колибри / Hummingbird (2013) BDRip-AVC от leonardo 59 Scarabey | iTunes Russia
  • Эффект колибри / Hummingbird (2013) HDRip от Scarabey | Лицензия
  • Эффект колибри / Hummingbird (2013) BDRip-AVC от ExKinoRay | Лицензия
  • Эффект колибри / Hummingbird (2013) BDRip 720p | Лицензия
  • Эффект колибри / Hummingbird (2013) BDRemux 1080p | D | POR Transfer | Лицензия


    • Комментарии (0):

      Информация

      Информация

        Посетители, находящиеся в группе Гости, не могут оставлять комментарии в данной новости.

        ↓ Меню



        ↓ Опрос

        А Вы добавили сайт в закладки?
        Да
        Не


        Top 10 за месяц (Фильмы)