.
Авторизация | Регистрация
» » Лето. Пляж. Кино / Teen Beach Movie (2013) WEB-DLRip от Youtracker скачать через торрент бесплатно




    Лето. Пляж. Кино / Teen Beach Movie (2013) WEB-DLRip от Youtracker скачать через торрент бесплатно

    Опубликовал: Админ | Дата: 27-02-2015, 11:09 | Просмотров: 700

    Лето. Пляж. Кино / Teen Beach Movie

    Страна: США
    Жанр: мюзикл, семейный
    Год выпуска: 2013
    Продолжительность: 01:35:01

    Перевод: Профессиональный (дублированный) Канал Disney
    Cубтитры: нет
    Оригинальная аудиодорожка: английский

    Режиссер: Джеффри Хорнадэй / Jeffrey Hornaday

    В ролях: Росс Линч, Майя Митчелл, Грэйс Фиппс, Гари Клэйтон, Джон ДеЛюка, Крисси Фит, Сюзанн Крайер, Бэрри Боствик, Кевин Чэмберлин, Стив Валентайн

    Описание: Последний день лета подходит к концу, а поклонники сёрфинга Маккензи и ее друг Брейди никак не хотят уходить с пляжа. Под вечер они ловят огромную волну, которая переносит их не только в пространстве, но и во времени - на полстолетия назад! Здесь, в 60-х, друзья оказываются в центре противостояния двух шумных компаний - сёрферов и рокеров. Оказывается, всё, что происходит вокруг, - не что иное, как известный ретро-мюзикл. У Маккензи и Брейди есть только один шанс попасть обратно домой - вернуть музыкальную историю в прежнее русло. Для этого ребятам предстоит освоить язык песни и танца...



    Качество видео: WEB-DLRip Teen Beach Movie.2013.WEB-DL 720p
    Формат видео: AVI
    Видео кодек: XviD
    Аудио кодек: AC3
    Видео: 688x384 (1.79:1), 23.976 fps, XviD build 73 ~1616 kbps avg, 0.26 bit/pixel
    Аудио #1: 48 kHz, AC3 Dolby Digital, 2/0 (L,R) ch, ~192 kbps | DUB
    Аудио #2: 48 kHz, AC3 Dolby Digital, 3/2 (L,C,R,l,r) LFE ch, ~384 kbps | Original
    Раздача от:
    Скриншоты

    MI
    D:Мои рипыTeen Beach Movie.2013.WEB-DLRip.dexter_lex.avi
    General
    Complete name : D:Мои рипыTeen Beach Movie.2013.WEB-DLRip.dexter_lex.avi
    Format : AVI
    Format/Info : Audio Video Interleave
    File size : 1.47 GiB
    Duration : 1h 35mn
    Overall bit rate : 2 207 Kbps
    Writing application : VirtualDubMod 1.5.10.3 | www.virtualdub-fr.org || (build 2550/release)
    Writing library : VirtualDubMod build 2550/release
    Video #0
    ID : 0
    Format : MPEG-4 Visual
    Format profile : Advanced Simple@L5
    Format settings, BVOP : 1
    Format settings, QPel : No
    Format settings, GMC : No warppoints
    Format settings, Matrix : Custom
    Codec ID : XVID
    Codec ID/Hint : XviD
    Duration : 1h 35mn
    Bit rate : 1 617 Kbps
    Width : 688 pixels
    Height : 384 pixels
    Display aspect ratio : 16:9
    Frame rate : 23.976 fps
    Color space : YUV
    Chroma subsampling : 4:2:0
    Bit depth : 8 bits
    Scan type : Progressive
    Compression mode : Lossy
    Bits/(Pixel*Frame) : 0.255
    Stream size : 1.07 GiB (73%)
    Writing library : XviD 73
    Audio #1
    ID : 1
    Format : AC-3
    Format/Info : Audio Coding 3
    Mode extension : CM (complete main)
    Codec ID : 2000
    Duration : 1h 35mn
    Bit rate mode : Constant
    Bit rate : 192 Kbps
    Channel(s) : 2 channels
    Channel positions : Front: L R
    Sampling rate : 48.0 KHz
    Bit depth : 16 bits
    Compression mode : Lossy
    Stream size : 131 MiB (9%)
    Alignment : Split accross interleaves
    Interleave, duration : 42 ms (1.00 video frame)
    Interleave, preload duration : 500 ms
    Audio #2
    ID : 2
    Format : AC-3
    Format/Info : Audio Coding 3
    Mode extension : CM (complete main)
    Codec ID : 2000
    Duration : 1h 35mn
    Bit rate mode : Constant
    Bit rate : 384 Kbps
    Channel(s) : 6 channels
    Channel positions : Front: L C R, Side: L R, LFE
    Sampling rate : 48.0 KHz
    Bit depth : 16 bits
    Compression mode : Lossy
    Stream size : 261 MiB (17%)
    Alignment : Split accross interleaves
    Interleave, duration : 42 ms (1.00 video frame)
    Interleave, preload duration : 500 ms

    Размер: 1.47 GB (1573478400 Bytes)

    Лето. Пляж. Кино / Teen Beach Movie (2013) WEB-DLRip от Youtracker скачать через торрент бесплатно
    загрузка...
    Рейтинг →
     (голосов: 1, оценка 4/5, голосовать можно 1 раз )

    Другие торренты по теме:

  • Разгар лета / Лето мёртвых / Dead of Summer (2016) WEBRip 720p, WEB-DL 720p от GeneralFilm | LostFilm скачать торрент бесплатно
  • Разгар лета / Лето мёртвых / Dead of Summer (2016) WEBRip, WEB-DLRip от GeneralFilm | LostFilm скачать торрент бесплатно
  • Разгар лета / Лето мёртвых / Dead of Summer (2016) WEB-DL 1080p | NewStudio скачать торрент бесплатно
  • Ведический календарь. Славяно-арийский календарь Коляды Дар на лето 7521, 2012-2013 год (2013) JPEG торрент скачать бесплатно
  • Лето Джакомо / Lestate di Giacomo / Summer of Giacomo (2011) DVDRip | L1 торрент скачать бесплатно
  • Лето Ольги / Olgas Sommer (2002) DVDRip от ExKinoRay торрент скачать бесплатно
  • Весна, лето, осень, зима... и снова весна / Bom yeoreum gaeul gyeoul geurigo bom (2003) BDRip от HQCLUB торрент скачать бесплатно
  • Окно в лето / Fenster zum Sommer (2011) DVDRip AVC от Киномагия l P2 торрент скачать бесплатно


    • Комментарии (0):

      Информация

      Информация

        Посетители, находящиеся в группе Гости, не могут оставлять комментарии в данной новости.

        ↓ Меню



        ↓ Опрос

        А Вы добавили сайт в закладки?
        Да
        Не


        Top 10 за неделю (Фильмы)