.
Авторизация | Регистрация
» » Ученик мастера / Tai Chi 0 (2012) BDRip 720p | D скачать через торрент бесплатно




    Ученик мастера / Tai Chi 0 (2012) BDRip 720p | D скачать через торрент бесплатно

    Опубликовал: Админ | Дата: 27-02-2015, 11:09 | Просмотров: 369



    Информация о фильме
    Название: Ученик мастера
    Оригинальное название: Tai Chi 0
    Год выхода: 2012
    Жанр: боевик, драма
    Режиссер: Стивен Фанг
    В ролях: Стивен Фанг, Юань Сяочао, Тони Люн Ка Фай, Эдди Пэн, Шу Ци, Дэниэл Ву, Стэнли Фунг, Пьер Бурдо, Пол Филип Кларк, Кеони Эверингтон, Анджела Бейби

    О фильме: Необыкновенно одарённого ребёнка Яна все считают местным дурачком, но он не обращает на это внимание. Ян отправляется в затерянную в горах деревню мастеров кунг-фу, чтобы изучить тайны этой борьбы. Но, он недостоин обучаться великому искусству — в первом же бою он проиграл девушке. Только местный нищий старик сочувствует ему и берется научить его. Эти навыки ему пригодятся в борьбе с злодеями, чтобы вернуть доверие жителей деревни и завоевать сердце красавицы Юнь. Ведь нищий старик, на самом деле, великий мастер кунгфу и отец Юнь. Битва начинается!



    Выпущено: Китай / Diversion Pictures, Huayi Brothers Taihe Film Investment
    Продолжительность: 01:38:07
    Озвучивание: Дублированное Студия SOL PRO

    Файл
    Формат: MKV (H.264)
    Качество: BDRip 720p
    Видео: 5736 kb/s, 1280x546
    Аудио: AC3, 192 kb/s (2 ch)
    Субтитры: Chinese, English






    MI

    Format : Matroska
    Format version : Version 2
    File size : 4.08 GiB
    Duration : 1h 38mn
    Overall bit rate : 5 936 Kbps
    Encoded date : UTC 2013-09-27 21:03:28
    Writing application : mkvmerge v5.8.0 (;No Sleep / Pillow;) built on Sep 2 2012 15:37:04
    Writing library : libebml v1.2.3 libmatroska v1.3.0

    Video
    ID : 1
    Format : AVC
    Format/Info : Advanced Video Codec
    Format profile : High@L4.1
    Format settings, CABAC : Yes
    Format settings, ReFrames : 10 frames
    Codec ID : V_MPEG4/ISO/AVC
    Duration : 1h 38mn
    Bit rate : 5 736 Kbps
    Width : 1 280 pixels
    Height : 546 pixels
    Display aspect ratio : 2.35:1
    Frame rate : 23.976 fps
    Color space : YUV
    Chroma subsampling : 4:2:0
    Bit depth : 8 bits
    Scan type : Progressive
    Bits/(Pixel*Frame) : 0.342
    Stream size : 3.87 GiB (95%)
    Title : hahay0yo@CHD
    Writing library : x264 core 125 r2208 d9d2288
    Encoding settings : cabac=1 / ref=10 / deblock=1:-3:-3 / analyse=0x3:0x113 / me=umh / subme=10 / psy=1 / psy_rd=1.10:0.15 / mixed_ref=1 / me_range=32 / chroma_me=1 / trellis=2 / 8x8dct=1 / cqm=0 / deadzone=21,11 / fast_pskip=0 / chroma_qp_offset=-2 / threads=12 / lookahead_threads=2 / sliced_threads=0 / nr=0 / decimate=1 / interlaced=0 / bluray_compat=0 / constrained_intra=0 / bframes=6 / b_pyramid=2 / b_adapt=2 / b_bias=0 / direct=3 / weightb=1 / open_gop=0 / weightp=2 / keyint=250 / keyint_min=23 / scenecut=40 / intra_refresh=0 / rc_lookahead=40 / rc=2pass / mbtree=0 / bitrate=5736 / ratetol=1.0 / qcomp=0.60 / qpmin=0 / qpmax=69 / qpstep=4 / cplxblur=20.0 / qblur=0.5 / vbv_maxrate=40000 / vbv_bufsize=30000 / nal_hrd=none / ip_ratio=1.40 / pb_ratio=1.30 / aq=1:0.80
    Language : Chinese
    Default : Yes
    Forced : No

    Audio
    ID : 2
    Format : AC-3
    Format/Info : Audio Coding 3
    Mode extension : CM (complete main)
    Format settings, Endianness : Big
    Codec ID : A_AC3
    Duration : 1h 38mn
    Bit rate mode : Constant
    Bit rate : 192 Kbps
    Channel(s) : 2 channels
    Channel positions : Front: L R
    Sampling rate : 48.0 KHz
    Bit depth : 16 bits
    Compression mode : Lossy
    Stream size : 135 MiB (3%)
    Language : Russian
    Default : Yes
    Forced : No

    Text #1
    ID : 3
    Format : PGS
    Muxing mode : zlib
    Codec ID : S_HDMV/PGS
    Codec ID/Info : The same subtitle format used on BDs/HD-DVDs
    Title : Simplified Chinese
    Language : Chinese
    Default : No
    Forced : No

    Text #2
    ID : 4
    Format : PGS
    Muxing mode : zlib
    Codec ID : S_HDMV/PGS
    Codec ID/Info : The same subtitle format used on BDs/HD-DVDs
    Title : Traditional Chinese
    Language : Chinese
    Default : No
    Forced : No

    Text #3
    ID : 5
    Format : PGS
    Muxing mode : zlib
    Codec ID : S_HDMV/PGS
    Codec ID/Info : The same subtitle format used on BDs/HD-DVDs
    Title : English
    Language : English
    Default : No
    Forced : No
    Скриншоты

    Размер: 4.08 GB (4378964292 Bytes)

    Ученик мастера / Tai Chi 0 (2012) BDRip 720p | D скачать через торрент бесплатно
    загрузка...
    Рейтинг →
     (голосов: 1, оценка 5/5, голосовать можно 1 раз )

    Другие торренты по теме:

  • Ученик мастера / Tai Chi 0 (2012) HDRip | D скачать через торрент бесплатно
  • Ученик мастера / Tai Chi 0 (2012) DVDRip от ClubTorrent | D скачать через торрент бесплатно
  • Ученик мастера / Tai Chi 0 (2012) BDRip-AVC от MediaClub | D торрент скачать бесплатно
  • Ученик мастера / Tai Chi 0 (2012) HDRip-AVC от Torrent Club | D торрент скачать бесплатно
  • Ученик мастера / Tai Chi 0 (2012) Blu-ray Remux 1080p от MediaClub | D, L1 скачать через торрент бесплатно
  • Ученик мастера / Tai Chi 0 (2012) HDRip от R.G.RealMT | КПК | D скачать через торрент бесплатно
  • Ученик мастера / Tai Chi 0 (2012) BDRip-AVC от HELLYWOOD | D торрент скачать бесплатно
  • Ученик мастера 2D, 3D / Tai Chi 0 2D, 3D (2012) BDRemux 1080р от ExKinoRay | 3D-Video | iTunes Russia скачать через торрент бесплатно


    • Комментарии (0):

      Информация

      Информация

        Посетители, находящиеся в группе Гости, не могут оставлять комментарии в данной новости.

        ↓ Меню



        ↓ Опрос

        А Вы добавили сайт в закладки?
        Да
        Не


        Top 10 за неделю (Фильмы)