.
Авторизация | Регистрация
» » Войны орков / Orc Wars (2013) BDRip 720p | НТВ скачать через торрент бесплатно




    Войны орков / Orc Wars (2013) BDRip 720p | НТВ скачать через торрент бесплатно

    Опубликовал: Админ | Дата: 27-02-2015, 11:09 | Просмотров: 306



    Информация о фильме
    Название: Войны орков
    Оригинальное название: Orc Wars
    Год выхода: 2013
    Жанр: Боевик
    Режиссер: Кол Гласс
    В ролях: Расти Джойнер, Масьела Луша, Уэсли Джон, Айзек С. Синглтон мл., Маклейн Нельсон, Адам Джонсон, Клэр Нидерпрюэм, Джейк Ван Вагонер, Роки Майерс, Марк Броксмит

    О фильме: Спасаясь от армии орков, принцесса Алея открывает магический портал и попадает в наш мир. Однако и здесь кровожадные дикари продолжают её преследовать. К счастью, девушка находит себе защитника в лице бывшего морпеха Джона, который с помощью незнакомого оркам огнестрельного оружия, легко даёт отпор преследователям. Однако, когда те призывают к себе на помощь настоящего дракона, Джон понимает, что без помощи друзей и тяжелой техники здесь не обойтись...



    Выпущено: США
    Продолжительность: 01:37:27
    Озвучивание: Профессиональное (многоголосое) НТВ

    Файл
    Формат: MKV
    Качество: BDRip 720p
    Видео: 3408 kb/s, 1280x720
    Аудио: Russian: AC3, 192 kb/s (2 ch) / German: DTS, 1510 kb/s (6 ch)
    Субтитры: German
    Дополнительно: Сохранены оригинальные чаптеры





    MI

    Format : Matroska
    Format version : Version 2
    File size : 3.55 GiB
    Duration : 1h 37mn
    Overall bit rate : 5 213 Kbps
    Encoded date : UTC 2013-09-28 00:37:17
    Writing application : mkvmerge v5.2.0 (;I can;t explain;) built on Dec 18 2011 18:12:03
    Writing library : libebml v1.2.3 libmatroska v1.3.0

    Video
    ID : 1
    Format : AVC
    Format/Info : Advanced Video Codec
    Format profile : High@L4.1
    Format settings, CABAC : Yes
    Format settings, ReFrames : 5 frames
    Muxing mode : Header stripping
    Codec ID : V_MPEG4/ISO/AVC
    Duration : 1h 37mn
    Bit rate : 3 408 Kbps
    Width : 1 280 pixels
    Height : 720 pixels
    Display aspect ratio : 16:9
    Frame rate : 23.976 fps
    Color space : YUV
    Chroma subsampling : 4:2:0
    Bit depth : 8 bits
    Scan type : Progressive
    Bits/(Pixel*Frame) : 0.154
    Stream size : 2.32 GiB (65%)
    Title : Orc Wars (2013)
    Writing library : x264 core 138 r2358 9e941d1
    Encoding settings : cabac=1 / ref=5 / deblock=1:-3:-3 / analyse=0x3:0x113 / me=umh / subme=7 / psy=1 / psy_rd=1.00:0.15 / mixed_ref=1 / me_range=16 / chroma_me=1 / trellis=1 / 8x8dct=1 / cqm=0 / deadzone=21,11 / fast_pskip=0 / chroma_qp_offset=-3 / threads=12 / lookahead_threads=2 / sliced_threads=0 / nr=0 / decimate=1 / interlaced=0 / bluray_compat=0 / constrained_intra=0 / bframes=3 / b_pyramid=2 / b_adapt=1 / b_bias=0 / direct=3 / weightb=1 / open_gop=0 / weightp=2 / keyint=250 / keyint_min=23 / scenecut=40 / intra_refresh=0 / rc_lookahead=40 / rc=crf / mbtree=1 / crf=20.0 / qcomp=0.60 / qpmin=0 / qpmax=69 / qpstep=4 / ip_ratio=1.40 / aq=1:1.00
    Default : Yes
    Forced : No

    Audio #1
    ID : 2
    Format : AC-3
    Format/Info : Audio Coding 3
    Mode extension : CM (complete main)
    Format settings, Endianness : Big
    Muxing mode : Header stripping
    Codec ID : A_AC3
    Duration : 1h 37mn
    Bit rate mode : Constant
    Bit rate : 192 Kbps
    Channel(s) : 2 channels
    Channel positions : Front: L R
    Sampling rate : 48.0 KHz
    Bit depth : 16 bits
    Compression mode : Lossy
    Stream size : 134 MiB (4%)
    Language : Russian
    Default : Yes
    Forced : Yes

    Audio #2
    ID : 3
    Format : DTS
    Format/Info : Digital Theater Systems
    Muxing mode : Header stripping
    Codec ID : A_DTS
    Duration : 1h 37mn
    Bit rate mode : Constant
    Bit rate : 1 510 Kbps
    Channel(s) : 6 channels
    Channel positions : Front: L C R, Side: L R, LFE
    Sampling rate : 48.0 KHz
    Bit depth : 24 bits
    Compression mode : Lossy
    Stream size : 1.03 GiB (29%)
    Title : DTS German
    Language : German
    Default : No
    Forced : No

    Text #1
    ID : 4
    Format : UTF-8
    Codec ID : S_TEXT/UTF8
    Codec ID/Info : UTF-8 Plain Text
    Title : Forced
    Language : German
    Default : No
    Forced : No

    Text #2
    ID : 5
    Format : UTF-8
    Codec ID : S_TEXT/UTF8
    Codec ID/Info : UTF-8 Plain Text
    Title : Full
    Language : German
    Default : No
    Forced : No

    Menu
    00:00:00.000 : en:00:00:00.000
    00:09:08.798 : en:00:09:08.798
    00:18:28.482 : en:00:18:28.482
    00:25:00.416 : en:00:25:00.416
    00:32:50.343 : en:00:32:50.343
    00:42:38.556 : en:00:42:38.556
    00:49:45.858 : en:00:49:45.858
    00:55:54.434 : en:00:55:54.434
    01:01:50.665 : en:01:01:50.665
    01:11:05.720 : en:01:11:05.720
    01:20:19.106 : en:01:20:19.106
    01:28:42.192 : en:01:28:42.192
    Скриншоты

    Размер: 3.55 GB (3810755004 Bytes)

    Войны орков / Orc Wars (2013) BDRip 720p | НТВ скачать через торрент бесплатно
    загрузка...
    Рейтинг →
     (голосов: 1, оценка 3/5, голосовать можно 1 раз )

    Другие торренты по теме:

  • Войны орков / Orc Wars (2013) DVDRip от BitTracker торрент скачать бесплатно
  • Войны орков / Orc Wars (2013) DVDRip | P торрент скачать бесплатно
  • Войны орков / Orc Wars (2013) SATRip от ClubTorrent | P торрент скачать бесплатно
  • Войны орков / Orc Wars (2013) DVB от ClubTorrent | P торрент скачать бесплатно
  • Войны орков / Orc Wars (2013) HDRip | НТВ скачать через торрент бесплатно
  • Войны орков / Orc Wars (2013) BDRip-AVC от ExKinoRay | НТВ торрент скачать бесплатно


    • Комментарии (0):

      Информация

      Информация

        Посетители, находящиеся в группе Гости, не могут оставлять комментарии в данной новости.

        ↓ Меню



        ↓ Опрос

        А Вы добавили сайт в закладки?
        Да
        Не


        Top 10 за неделю (Фильмы)