.
Авторизация | Регистрация
Хочешь лучшие торренты? Добавь свой email!
Добавить
» » Одержимый (Джек Потрошитель) (2010) SATRip скачать через торрент бесплатно




    Одержимый (Джек Потрошитель) (2010) SATRip скачать через торрент бесплатно

    Опубликовал: Админ | Дата: 27-02-2015, 11:09 | Просмотров: 720



    Оригинальное название: Одержимый (Джек Потрошитель)
    Год выпуска: 2010
    Жанр: Триллер, детектив
    Режиссер: Евгений Звездаков
    В ролях: Дмитрий Марьянов, Мария Машкова, Даниил Спиваковский, Ромуальд Макаренко, Дмитрий Исаев, Андрей Ургант, Светлана Крючкова, Владимир Бирюков, Владимир Чернышов, Владислав Резник, Андрей Папанин, Роман Притула

    Описание: Изучая обстоятельства дел об убийствах проституток, Николай Троицкий догадывается, что все эти преступления – дело рук одного и того же человека. Но для районного отдела милиции главное – побыстрее закрыть дело, поэтому добросовестному оперу приходится вести собственное расследование. Троицкий и заинтересовавшаяся этим делом журналистка Жанна замечают странное сходство деталей нынешних убийств с лондонскими событиями 120-летней давности. Тогда, в 1888 году, в английской столице произошла серия жестоких расправ над проститутками. Убийца, называвший себя Джеком Потрошителем, был искренне убежден, что таким образом он способствует очищению мира от скверны. В ходе начатого расследования Троицкому становится понятно, что в наши дни в Санкт-Петербурге живет человек, вообразивший, будто в нем воплотился неистовый дух лондонского Потрошителя. Объединив усилия, оперативник и журналистка идут по следу маньяка. Увлеченные поиском истины, они не сразу замечают, как их дружеские отношения перерастают в настоящую любовь. Случайный знакомый – ученый и специалист по африканской культуре Маврин – помогает Жанне и Троицкому в расшифровке загадочной надписи на случайно обнаруженном орудии убийств. Может, именно в ней содержится ключ к разгадке?

    Выпущено: Россия
    Продолжительность: 12 x ~ 00:49:00
    Язык: Русский

    Качество: SATRip
    Видео: XviD, ~ 1673 Кбит/с, 720x400
    Аудио rus: AC3, 2 ch, 192 Кбит/с

    Инфо
    Полное имя : D:Oderzhymyj.(Dzek.Potroshitely).tahiy1.Oderzhymyj.(Dzek.Potroshitely).tahiy.avi
    Формат : AVI
    Формат/Информация : Audio Video Interleave
    Размер файла : 611 Мбайт
    Продолжительность : 47 м.
    Общий поток : 1783 Кбит/сек
    Название фильма : Одержимый (Джек Потрошитель)
    Режиссёр : - = Rip by tahiy = -
    Программа кодирования : VirtualDubMod 1.5.10.3 | www.virtualdub-fr.org || (build 2550/release)

    Видео
    Идентификатор : 0
    Формат : MPEG-4 Visual
    Профиль формата : Advanced Simple@L5
    Параметр BVOP формата : 1
    Параметр QPel формата : Нет
    Параметр GMC формата : Без точки перехода
    Параметр матрицы формата : Default (MPEG)
    Идентификатор кодека : XVID
    Идентификатор кодека/Подсказка : XviD
    Продолжительность : 47 м.
    Битрейт : 1581 Кбит/сек
    Ширина : 720 пикселей
    Высота : 400 пикселей
    Соотношение сторон : 16:9
    Частота кадров : 25,000 кадров/сек
    Цветовое пространство : YUV
    Субдискретизация насыщенности : 4:2:0
    Битовая глубина : 8 бит
    Тип развёртки : Прогрессивная
    Метод сжатия : С потерями
    Бит/(Пиксели*Кадры) : 0.220
    Размер потока : 542 Мбайт (89%)
    Библиотека кодирования : XviD 1.2.1 (UTC 2008-12-04)

    Аудио
    Идентификатор : 1
    Формат : AC-3
    Формат/Информация : Audio Coding 3
    Расширение режима : CM (complete main)
    Параметр Endianness формата : Big
    Идентификатор кодека : 2000
    Продолжительность : 47 м.
    Вид битрейта : Постоянный
    Битрейт : 192 Кбит/сек
    Каналы : 2 канала
    Расположение каналов : Front: L R
    Частота : 48,0 КГц
    Битовая глубина : 16 бит
    Метод сжатия : С потерями
    Размер потока : 65,8 Мбайт (11%)
    Выравнивание : Разделение по промежуткам
    Продолжительность промежутка : 40 мс. (1,00 видеокадр)
    Время предзагрузки промежутка : 500 мс.
    Скриншоты


    Размер: 7.16 GB (7684933632 Bytes)

    Одержимый (Джек Потрошитель) (2010) SATRip скачать через торрент бесплатно
    загрузка...
    Рейтинг →
     (голосов: 1, оценка 4/5, голосовать можно 1 раз )

    Другие торренты по теме:



      Комментарии (0):

      Информация

      Информация

        Посетители, находящиеся в группе Гости, не могут оставлять комментарии в данной новости.

        ↓ Меню



        ↓ Опрос

        А Вы добавили сайт в закладки?
        Да
        Не


        Top 10 за месяц (Фильмы)