.
Авторизация | Регистрация
» » Мамаша / Мамочка / Mom (2013) WEB-DLRip | Несмертельное оружие скачать через торрент бесплатно




    Мамаша / Мамочка / Mom (2013) WEB-DLRip | Несмертельное оружие скачать через торрент бесплатно

    Опубликовал: Админ | Дата: 27-02-2015, 11:09 | Просмотров: 414

    - Мамаша -
    Mom

    Сезон: 1 / Серии: 1 (13)Страна: США
    Студия: Warner Bros. Television / Chuck Lorre Productions
    Жанр: комедия
    Год выпуска: 2013
    Продолжительность: 1 x ~22 мин.Перевод: Профессиональный (многоголосый закадровый) - Несмертельное оружие
    Русские субтитры: нетРежиссёр: Джефф Гринштейн / Jeff Greenstein

    В ролях: Анна Фэрис, Эллисон Дженни, Сэди Кальвано, Блейк Гаррет, Нэйтан Кордри, Спенсер Дэниелс, Мэтт Джонс, Френч Стюарт, Анджело Романелли, Антонио Гомес, Майлз Дж.Д. Веддер, Регги Де Леон, Девид де Латур, Кортни Хенгелер, Джесси Мерлин, Кэти Молинаро, Шэйн Блейдс, Джилл Ловер, Джордж Паэс, Джастин Лонг и др.

    Описание: Мамаша (Мамочка) – это новый ситком от Чака Лорри, автора Теория большого взрыва, Два с половиной человека и Майк и Молли о том, как недавно завязавшая с алкоголем мать-одиночка пытается вырастить двух детей, в мире полном различных соблазнов и преград.


    Перевод: Яна КуваеваТип релиза: WEB-DLRip
    Формат: AVI
    Видео кодек: XviD
    Аудио кодек: AC3
    Видео: 720x400 (1.80:1), 23.976 fps, XviD build 50 ~1754 kbps avg, 0.25 bit/pixel
    | Аудио #1: 48 kHz, AC3 Dolby Digital, 2/0 (L,R) ch, ~192.00 kbps avg | Russian | MVO
    | Аудио #2: 48 kHz, AC3 Dolby Digital, 2/0 (L,R) ch, ~192.00 kbps avg | English | Original
    Скриншоты





    Список серий в раздаче

    Эпизод: 01
    Пилот (Pilot)
    Дата премьерного показа в США: 23 сентября 2013 г.


    MediaInfo

    General
    Complete name : Mom.S01E01.Dual.WEB-DLRip.Nesmertelnoe.oruzhie.avi
    Format : AVI
    Format/Info : Audio Video Interleave
    File size : 350 MiB
    Duration : 22mn 43s
    Overall bit rate : 2 153 Kbps
    Movie name : Мамаша / Мамочка / Mom / Сезон: 1 / Эпизод: 01 - Пилот
    Director : ANTipiGo
    Genre : Comedy
    Writing application : VirtualDubMod 1.5.10.2 (build 2540/release)
    Original source form/Name : TV-Serie
    Copyright : Творческое объединение Несмертельное оружие
    Comment : http://vk.com/nesmertelnoe_oruzhie

    Video
    ID : 0
    Format : MPEG-4 Visual
    Format profile : Advanced Simple@L5
    Format settings, BVOP : 2
    Format settings, QPel : No
    Format settings, GMC : No warppoints
    Format settings, Matrix : Default (MPEG)
    Codec ID : XVID
    Codec ID/Hint : XviD
    Duration : 22mn 43s
    Bit rate : 1 754 Kbps
    Width : 720 pixels
    Height : 400 pixels
    Display aspect ratio : 16:9
    Frame rate : 23.976 fps
    Color space : YUV
    Chroma subsampling : 4:2:0
    Bit depth : 8 bits
    Scan type : Progressive
    Compression mode : Lossy
    Bits/(Pixel*Frame) : 0.254
    Stream size : 285 MiB (81%)
    Writing library : XviD 1.2.1 (UTC 2008-12-04)

    Audio #1
    ID : 1
    Format : AC-3
    Format/Info : Audio Coding 3
    Mode extension : CM (complete main)
    Format settings, Endianness : Big
    Codec ID : 2000
    Duration : 22mn 43s
    Bit rate mode : Constant
    Bit rate : 192 Kbps
    Channel(s) : 2 channels
    Channel positions : Front: L R
    Sampling rate : 48.0 KHz
    Bit depth : 16 bits
    Compression mode : Lossy
    Stream size : 31.2 MiB (9%)
    Alignment : Split accross interleaves
    Interleave, duration : 42 ms (1.00 video frame)
    Interleave, preload duration : 500 ms
    Title : RUS MVO (Несмертельное оружие)

    Audio #2
    ID : 2
    Format : AC-3
    Format/Info : Audio Coding 3
    Mode extension : CM (complete main)
    Format settings, Endianness : Big
    Codec ID : 2000
    Duration : 22mn 43s
    Bit rate mode : Constant
    Bit rate : 192 Kbps
    Channel(s) : 2 channels
    Channel positions : Front: L R
    Sampling rate : 48.0 KHz
    Bit depth : 16 bits
    Compression mode : Lossy
    Stream size : 31.2 MiB (9%)
    Alignment : Split accross interleaves
    Interleave, duration : 42 ms (1.00 video frame)
    Interleave, preload duration : 500 ms
    Title : ENG Original

    Промо-ролик

    ? ПРОМО РОЛИК ЗА КАДРОМ ?

    Внимание! Раздача ведется путём добавления новых серий

    Раздача ведётся путём добавления новых серий; при каждом добавлении создаётся новый торрент. Чтобы начать докачку новой серии, пользователям необходимо сделать следующее:• (1) остановить скачивание,
    • (2) удалить старый торрент у себя из клиента (старые серии удалять не надо),
    • (3) скачать новый торрент и запустить его у себя в клиенте вместо старого, при этом указать клиенту путь в старую папку куда и должно происходить скачивание новых серий.size=11Ваш клиент при этом должен произвести хеширование (проверку) старой папки (если не производит сам - помогите ему сделать это), и будет докачивать только те серии которых у вас ещё нет. Старые серии при этом не удаляются, а продолжают раздаваться!
    Eсли вы уже удалили старые серии, то предотвратить повторную закачку старых серий можно, отжав галочку в соответствующих местах при запуске нового торрента. По возможности, желательно не удалять старые серии как можно дольше чтобы релизёр не столько продолжал раздавать старые серии, а смог сконцентрироваться на новых./size

    Размер: 349.99 MB (366989312 Bytes)

    Мамаша / Мамочка / Mom (2013) WEB-DLRip | Несмертельное оружие скачать через торрент бесплатно
    загрузка...
    Рейтинг →
     (голосов: 1, оценка 4/5, голосовать можно 1 раз )

    Другие торренты по теме:

  • Молодая мамаша / Pramface (2012) HDTVRip | L торрент скачать бесплатно
  • Черная мамаша, белая мамаша / Black Mama, White Mama (1973) DVDRip-AVC от F-Torrents торрент скачать бесплатно
  • Мамаша / Мамочка / Mom (2013) WEB-DLRip 720p | Несмертельное оружие скачать через торрент бесплатно
  • Партия для чемпионки / Сорокалетняя мамаша (2013) SATRip скачать через торрент бесплатно
  • Хай, мамаша! / Hi, Mom! (1970) DVDRip от Brazzass торрент скачать бесплатно
  • Нехорошая мамаша / Big Bad Mama (1974) DVDRip-AVC от AndreSweet торрент скачать бесплатно
  • Нехорошая мамаша 2 / Big Bad Mama II (1987) DVDRip-AVC от AndreSweet скачать через торрент бесплатно
  • Партия для чемпионки (Сорокалетняя мамаша) (2013) WEB-DL 1080p от MediaClub торрент скачать бесплатно


    • Комментарии (0):

      Информация

      Информация

        Посетители, находящиеся в группе Гости, не могут оставлять комментарии в данной новости.

        ↓ Меню



        ↓ Опрос

        А Вы добавили сайт в закладки?
        Да
        Не


        Top 10 за неделю (Фильмы)