.
Авторизация | Регистрация
Хочешь лучшие торренты? Добавь свой email!
Добавить
» » Козерог один / Capricorn One (1977) DVDRip от Youtracker торрент скачать бесплатно




    Козерог один / Capricorn One (1977) DVDRip от Youtracker торрент скачать бесплатно

    Опубликовал: Админ | Дата: 27-02-2015, 11:09 | Просмотров: 321


    Страна: США, Великобритания
    Производство: Associated General Films, Incorporated Television Company (ITC)
    Жанр: фантастика, боевик, триллер
    Год выпуска: 1977
    Продолжительность: 02:03:10

    Перевод: Профессиональный (Многоголосый, закадровый)
    Оригинальная аудиодорожка: нет
    Cубтитры: нет

    Режиссер: Питер Хайамс / Peter Hyams

    В ролях:
    Эллиот Гулд /Elliott Gould/, Джеймс Бролин /James Brolin/, Бренда Ваккаро /Brenda Vaccaro/, Сэм Уотерстон /Sam Waterston/, О. Дж. Симпсон /O.J. Simpson/, Хэл Холбрук /Hal Holbrook/, Карен Блэк /Karen Black/, Телли Савалас /Telly Savalas/, Дэвид Хаддлстон /David Huddleston/, Дэвид Дойл /David Doyle/...

    Описание:
    Весь мир следит за подготовкой к первому полету на Марс. Неожиданно астронавтов забирают из космического корабля и отвозят на заброшенную базу в пустыне, где директор НАСА сообщает им, что возникли проблемы с системами жизнеобеспечения.
    Но так как запланированный полет чрезвычайно важен для будущего развития космических исследовательских программ, он приказывает им принять участие в симулированной посадке на Марсе. Если они откажутся, то пострадают их семьи.
    Полет якобы идет нормально, пока один из работников НАСА не обнаруживает несоответствие в показаниях приборов. Он говорит об этом своему другу репортеру, который, почувствовав сенсацию, начинает расследование…




    Исходник: BDRemux 1080p
    Тип релиза: BDRip
    Контейнер: AVI

    Видео: 672x288 (2.35:1), 24 fps, XviD ~ 710 kbps avg, 0.153 bit/pixel
    Аудио: 48 kHz, MP3 5.1, 128 kbps

    Раздача от:
    MediaInfo

    Общее
    Полное имя : Kozerog.odin.1977.BDRip-745_Youtracker_by_AVP Studio.avi
    Формат : AVI
    Формат/Информация : Audio Video Interleave
    Размер файла : 746 Мбайт
    Продолжительность : 2 ч. 3 м.
    Общий поток : 847 Кбит/сек
    Программа кодирования : VirtualDubModRus 1.5.10.2 (build 2542/release)
    Библиотека кодирования : VirtualDubMod build 2542/release

    Видео
    Идентификатор : 0
    Формат : MPEG-4 Visual
    Профиль формата : Advanced Simple@L5
    Параметр BVOP формата : 1
    Параметр QPel формата : Нет
    Параметр GMC формата : Без точки перехода
    Параметр матрицы формата : Выборочная
    Идентификатор кодека : XVID
    Идентификатор кодека/Подсказка : XviD
    Продолжительность : 2 ч. 3 м.
    Битрейт : 710 Кбит/сек
    Ширина : 672 пикселя
    Высота : 288 пикселей
    Соотношение сторон : 2,35:1
    Частота кадров : 24,000 кадра/сек
    Цветовое пространство : YUV
    Субдискретизация насыщенности : 4:2:0
    Битовая глубина : 8 бит
    Тип развёртки : Прогрессивная
    Метод сжатия : С потерями
    Бит/(Пиксели*Кадры) : 0.153
    Размер потока : 625 Мбайт (84%)
    Библиотека кодирования : XviD 73

    Аудио
    Идентификатор : 1
    Формат : MPEG Audio
    Версия формата : Version 1
    Профиль формата : Layer 3
    Идентификатор кодека : 55
    Идентификатор кодека/Подсказка : MP3
    Продолжительность : 2 ч. 3 м.
    Вид битрейта : Постоянный
    Битрейт : 128 Кбит/сек
    Каналы : 2 канала
    Частота : 48,0 КГц
    Метод сжатия : С потерями
    Размер потока : 113 Мбайт (15%)
    Выравнивание : Соединение по промежуткам
    Продолжительность промежутка : 42 мс. (1,00 видеокадр)
    Время предзагрузки промежутка : 504 мс.
    Библиотека кодирования : LAME3.99r
    Залил: AVPStudio
    Размер: 746.22 MB (782467072 Bytes)


    Козерог один / Capricorn One (1977) DVDRip от Youtracker торрент скачать бесплатно
    загрузка...
    Рейтинг →
     (голосов: 1, оценка 4/5, голосовать можно 1 раз )

    Другие торренты по теме:

  • Козерог Один / Capricorn One (1978) BDRip-AVC от ExKinoRay
  • Козерог один / Capricorn One (1977) DVDRip 720p от Youtracker скачать через торрент бесплатно
  • Козерог один / Capricorn One (1977) DVDRip-AVC от Youtracker скачать через торрент бесплатно
  • Козерог один / Capricorn One скачать через торрент бесплатно
  • Козерог один / Capricorn One (1977) BDRip 720p | D, P, P2
  • Козерог один / Capricorn One (1977) HDRip от ImperiaFilm | D
  • Козерог один / Capricorn One (1977) BDRemux 1080p | D, P, P2


    • Комментарии (0):

      Информация

      Информация

        Посетители, находящиеся в группе Гости, не могут оставлять комментарии в данной новости.

        ↓ Меню



        ↓ Опрос

        А Вы добавили сайт в закладки?
        Да
        Не


        Top 10 за месяц (Фильмы)