.
Авторизация | Регистрация
Хочешь лучшие торренты? Добавь свой email!
Добавить
» » Обитель зла / Resident Evil (2002) BDRip 1080p от msltel торрент скачать бесплатно




    Обитель зла / Resident Evil (2002) BDRip 1080p от msltel торрент скачать бесплатно

    Опубликовал: Админ | Дата: 27-02-2015, 11:09 | Просмотров: 456



    Название: Обитель зла
    Оригинальное название: Resident Evil
    Год выпуска: 2002
    Жанр: Ужасы, фантастика, боевик
    Выпущено: Великобритания, Германия, Франция, США, Constantin Film Produktion GmbH, Davis-Films, Impact Pictures, New Legacy
    Режиссер: Пол У. С. Андерсон
    В ролях: Милла Йовович, Мишель Родригес, Эрик Мэбиас, Джеймс Пьюрфой, Мартин Крюз, Колин Сэлмон, Райан МакКласки, Оскар Пирс, Индра Ове, Анна Болт, Джозеф Мэй, Роберт Тэннион, Хайке Макатч, Джеймс Батлер, Стивен Биллингтон, Фиона Глэскотт, Паскуале Алеарди, Лиз Мэй Брайс, Торстен Йерабек, Марк Логан-Блэк, Михаэла Дикер

    О фильме: В гигантской подземной лаборатории на волю вырывается опаснейший вирус, мгновенно превращая своих жертв в прожорливых зомби. Достаточно одного их укуса или царапины страшных когтей, чтобы человек стал обезумевшим пожирателем живой плоти. Военные посылают в секретный комплекс, кишащий ужасными мутировавшими животными и голодными монстрами, группу спецназа, к которой присоединяются очаровательная Элис и отважный полицейский Мэтт. У них есть только три часа, чтобы уничтожить вирус до того, как он распространится по всей Земле…

    Качество: BDRip 1080p
    Размер: 19.4 ГБ
    Продолжительность: 01:40:31

    Видео: MPEG-4 AVC, 13.5 Mбит/с, 1920x1040
    Аудио 1: русский, 48 kHz, DTS, 6 ch, 1508 kbps avg, Дублированный, Парадиз-ВС
    Аудио 2: русский, 48 kHz, DTS, 6 ch, 1509 kbps avg, Авторский, Дмитрий Пучков - Гоблин
    Субтитры 1: русские
    Субтитры 2: английские

    Внешние файлы
    Аудио: русский, 48 kHz, AC3, 2 ch, 192 kbps avg, Профессиональный многоголосый, THT
    Аудио: украинский, 48 kHz, AC3, 2 ch, 192 kbps avg, Профессиональный многоголосый, ICTV
    Аудио: русский, 48 kHz, DTS, 6 ch, 1509 kbps avg, Профессиональный двухголосый, Инна Королёва и Пётр Гланц - вариант 1
    Аудио: русский, 48 kHz, DTS, 6 ch, 1509 kbps avg, Профессиональный двухголосый, Инна Королёва и Пётр Гланц - вариант 2
    Аудио: русский, 48 kHz, DTS, 6 ch, 1509 kbps avg, Авторский, Джейкоб Беллман
    Аудио: русский, 48 kHz, DTS, 6 ch, 1509 kbps avg, Авторский, Леонид Володарский
    Аудио: русский, 48 kHz, DTS, 6 ch, 1509 kbps avg, Авторский, Евгений Рудой
    Аудио: русский, 48 kHz, DTS, 6 ch, 1509 kbps avg, Авторский, Валерий Рукин
    Аудио: английский, 48 kHz, DTS, 6 ch, 1509 kbps avg, Оригинал

    Имеются неименованные главы/чаптеры

    Сравнение с исходником



    MeliaInfo Лог х264
    Общее
    Полное имя : E:VideoObitel.zla.2002.x264.BDRip.1080pObitel.zla.2002.AVO.rus.В.Рукин.dts
    Формат : DTS
    Формат/Информация : Digital Theater Systems
    Размер файла : 1,06 Гбайт
    Продолжительность : 1 ч. 40 м.
    Режим общего битрейта : Постоянный
    Общий поток : 1509 Кбит/сек

    Аудио
    Формат : DTS
    Формат/Информация : Digital Theater Systems
    Режим : 16
    Параметр Endianness формата : Big
    Продолжительность : 1 ч. 40 м.
    Вид битрейта : Постоянный
    Битрейт : 1509 Кбит/сек
    Каналы : 6 каналов
    Расположение каналов : Front: L C R, Side: L R, LFE
    Частота : 48,0 КГц
    Битовая глубина : 24 бит
    Метод сжатия : С потерями
    Размер потока : 1,06 Гбайт (100%)

    Общее
    Полное имя : E:VideoObitel.zla.2002.x264.BDRip.1080pObitel.zla.2002.AVO.rus.Е.Рудой.dts
    Формат : DTS
    Формат/Информация : Digital Theater Systems
    Размер файла : 1,06 Гбайт
    Продолжительность : 1 ч. 40 м.
    Режим общего битрейта : Постоянный
    Общий поток : 1509 Кбит/сек

    Аудио
    Формат : DTS
    Формат/Информация : Digital Theater Systems
    Режим : 16
    Параметр Endianness формата : Big
    Продолжительность : 1 ч. 40 м.
    Вид битрейта : Постоянный
    Битрейт : 1509 Кбит/сек
    Каналы : 6 каналов
    Расположение каналов : Front: L C R, Side: L R, LFE
    Частота : 48,0 КГц
    Битовая глубина : 16 бит
    Метод сжатия : С потерями
    Размер потока : 1,06 Гбайт (100%)

    Общее
    Полное имя : E:VideoObitel.zla.2002.x264.BDRip.1080pObitel.zla.2002.AVO.rus.Л.Володарский.dts
    Формат : DTS
    Формат/Информация : Digital Theater Systems
    Размер файла : 1,06 Гбайт
    Продолжительность : 1 ч. 40 м.
    Режим общего битрейта : Постоянный
    Общий поток : 1509 Кбит/сек

    Аудио
    Формат : DTS
    Формат/Информация : Digital Theater Systems
    Режим : 16
    Параметр Endianness формата : Big
    Продолжительность : 1 ч. 40 м.
    Вид битрейта : Постоянный
    Битрейт : 1509 Кбит/сек
    Каналы : 6 каналов
    Расположение каналов : Front: L C R, Side: L R, LFE
    Частота : 48,0 КГц
    Битовая глубина : 24 бит
    Метод сжатия : С потерями
    Размер потока : 1,06 Гбайт (100%)

    Общее
    Полное имя : E:VideoObitel.zla.2002.x264.BDRip.1080pObitel.zla.2002.AVO.rus.Я.Беллман.dts
    Формат : DTS
    Формат/Информация : Digital Theater Systems
    Размер файла : 1,06 Гбайт
    Продолжительность : 1 ч. 40 м.
    Режим общего битрейта : Постоянный
    Общий поток : 1509 Кбит/сек

    Аудио
    Формат : DTS
    Формат/Информация : Digital Theater Systems
    Режим : 16
    Параметр Endianness формата : Big
    Продолжительность : 1 ч. 40 м.
    Вид битрейта : Постоянный
    Битрейт : 1509 Кбит/сек
    Каналы : 6 каналов
    Расположение каналов : Front: L C R, Side: L R, LFE
    Частота : 48,0 КГц
    Битовая глубина : 16 бит
    Метод сжатия : С потерями
    Размер потока : 1,06 Гбайт (100%)

    Общее
    Полное имя : E:VideoObitel.zla.2002.x264.BDRip.1080pObitel.zla.2002.DVO.rus.Гланц1.dts
    Формат : DTS
    Формат/Информация : Digital Theater Systems
    Размер файла : 1,06 Гбайт
    Продолжительность : 1 ч. 40 м.
    Режим общего битрейта : Постоянный
    Общий поток : 1509 Кбит/сек

    Аудио
    Формат : DTS
    Формат/Информация : Digital Theater Systems
    Режим : 16
    Параметр Endianness формата : Big
    Продолжительность : 1 ч. 40 м.
    Вид битрейта : Постоянный
    Битрейт : 1509 Кбит/сек
    Каналы : 6 каналов
    Расположение каналов : Front: L C R, Side: L R, LFE
    Частота : 48,0 КГц
    Битовая глубина : 24 бит
    Метод сжатия : С потерями
    Размер потока : 1,06 Гбайт (100%)

    Общее
    Полное имя : E:VideoObitel.zla.2002.x264.BDRip.1080pObitel.zla.2002.DVO.rus.Гланц2.dts
    Формат : DTS
    Формат/Информация : Digital Theater Systems
    Размер файла : 1,06 Гбайт
    Продолжительность : 1 ч. 40 м.
    Режим общего битрейта : Постоянный
    Общий поток : 1509 Кбит/сек

    Аудио
    Формат : DTS
    Формат/Информация : Digital Theater Systems
    Режим : 16
    Параметр Endianness формата : Big
    Продолжительность : 1 ч. 40 м.
    Вид битрейта : Постоянный
    Битрейт : 1509 Кбит/сек
    Каналы : 6 каналов
    Расположение каналов : Front: L C R, Side: L R, LFE
    Частота : 48,0 КГц
    Битовая глубина : 16 бит
    Метод сжатия : С потерями
    Размер потока : 1,06 Гбайт (100%)

    Общее
    Полное имя : E:VideoObitel.zla.2002.x264.BDRip.1080pObitel.zla.2002.MVO.rus.THT.ac3
    Формат : AC-3
    Формат/Информация : Audio Coding 3
    Размер файла : 138 Мбайт
    Продолжительность : 1 ч. 40 м.
    Режим общего битрейта : Постоянный
    Общий поток : 192 Кбит/сек

    Аудио
    Формат : AC-3
    Формат/Информация : Audio Coding 3
    Расширение режима : CM (complete main)
    Параметр Endianness формата : Big
    Продолжительность : 1 ч. 40 м.
    Вид битрейта : Постоянный
    Битрейт : 192 Кбит/сек
    Каналы : 2 канала
    Расположение каналов : Front: L R
    Частота : 48,0 КГц
    Битовая глубина : 16 бит
    Метод сжатия : С потерями
    Размер потока : 138 Мбайт (100%)

    Общее
    Полное имя : E:VideoObitel.zla.2002.x264.BDRip.1080pObitel.zla.2002.MVO.ukr.ICTV.ac3
    Формат : AC-3
    Формат/Информация : Audio Coding 3
    Размер файла : 138 Мбайт
    Продолжительность : 1 ч. 40 м.
    Режим общего битрейта : Постоянный
    Общий поток : 192 Кбит/сек

    Аудио
    Формат : AC-3
    Формат/Информация : Audio Coding 3
    Расширение режима : CM (complete main)
    Параметр Endianness формата : Big
    Продолжительность : 1 ч. 40 м.
    Вид битрейта : Постоянный
    Битрейт : 192 Кбит/сек
    Каналы : 2 канала
    Расположение каналов : Front: L R
    Частота : 48,0 КГц
    Битовая глубина : 16 бит
    Метод сжатия : С потерями
    Размер потока : 138 Мбайт (100%)

    Общее
    Полное имя : E:VideoObitel.zla.2002.x264.BDRip.1080pObitel.zla.2002.Original.eng.dts
    Формат : DTS
    Формат/Информация : Digital Theater Systems
    Размер файла : 1,06 Гбайт
    Продолжительность : 1 ч. 40 м.
    Режим общего битрейта : Постоянный
    Общий поток : 1509 Кбит/сек

    Аудио
    Формат : DTS
    Формат/Информация : Digital Theater Systems
    Режим : 16
    Параметр Endianness формата : Big
    Продолжительность : 1 ч. 40 м.
    Вид битрейта : Постоянный
    Битрейт : 1509 Кбит/сек
    Каналы : 6 каналов
    Расположение каналов : Front: L C R, Side: L R, LFE
    Частота : 48,0 КГц
    Битовая глубина : 24 бит
    Метод сжатия : С потерями
    Размер потока : 1,06 Гбайт (100%)

    Общее
    Уникальный идентификатор : 230288614223663204677062565989412179193 (0xAD3FF94ADB6D9C84B7F64E2637E30CF9)
    Полное имя : E:VideoObitel.zla.2002.x264.BDRip.1080pObitel.zla.2002.x264.BDRip.1080p.mkv
    Формат : Matroska
    Версия формата : Version 4 / Version 2
    Размер файла : 11,8 Гбайт
    Продолжительность : 1 ч. 40 м.
    Общий поток : 16,8 Мбит/сек
    Название фильма : Обитель зла / Resident Evil / 2002 / BDRip -- STarankov
    Дата кодирования : UTC 2013-10-01 13:39:24
    Программа кодирования : mkvmerge v6.4.1 (;Omega Point;) built on Sep 16 2013 22:05:10
    Библиотека кодирования : libebml v1.3.0 libmatroska v1.4.1

    Видео
    Идентификатор : 1
    Формат : AVC
    Формат/Информация : Advanced Video Codec
    Профиль формата : High@L4.1
    Параметр CABAC формата : Да
    Параметр ReFrames формата : 4 кадра
    Идентификатор кодека : V_MPEG4/ISO/AVC
    Продолжительность : 1 ч. 40 м.
    Битрейт : 13,5 Мбит/сек
    Ширина : 1920 пикселей
    Высота : 1040 пикселей
    Соотношение сторон : 1,85:1
    Режим частоты кадров : Постоянный
    Частота кадров : 23,976 кадра/сек
    Цветовое пространство : YUV
    Субдискретизация насыщенности : 4:2:0
    Битовая глубина : 8 бит
    Тип развёртки : Прогрессивная
    Бит/(Пиксели*Кадры) : 0.281
    Размер потока : 9,45 Гбайт (80%)
    Библиотека кодирования : x264 core 138 r2358 9e941d1
    Залил: msltel
    Размер: 19.49 GB (20926566214 Bytes)


    Обитель зла / Resident Evil (2002) BDRip 1080p от msltel торрент скачать бесплатно
    загрузка...
    Рейтинг →
     (голосов: 1, оценка 3/5, голосовать можно 1 раз )

    Другие торренты по теме:

  • Обитель зла Проклятие / Biohazard Damnation / Resident Evil Damnation (2012) BDRip 1080p от R.G. GoldenShara | Лицензия
  • Обитель зла: Вырождение / Resident Evil: Degeneration (2008) DVD5
  • Обитель Зла: Проклятие / Resident Evil: Damnation (2012) BDRemux 1080p
  • Обитель зла: Возмездие / Resident Evil: Retribution (2012) DVD9 от NovaLan
  • Обитель зла 2: Апокалипсис / Resident Evil: Apocalypse (2004) BDRip-AVC от 0ptimus | D, P2, A
  • OST - Обитель зла / Resident Evil 1-5 (2002-2012) MP3
  • Обитель Зла: Проклятие 3Д / Resident Evil: Damnation 3D (2012) BDRip 1080p | 3D-Video
  • Обитель зла 4: Жизнь после смерти / Resident Evil: Afterlife (2010) BDRip 1080p от FREEISLAND | D


    • Комментарии (0):

      Информация

      Информация

        Посетители, находящиеся в группе Гости, не могут оставлять комментарии в данной новости.

        ↓ Меню



        ↓ Опрос

        А Вы добавили сайт в закладки?
        Да
        Не


        Top 10 за месяц (Фильмы)