.
Авторизация | Регистрация
» » Мелкий снег / The Makioka Sisters / Sasame yuki (1983) BDRip 720p | SUB торрент скачать бесплатно




    Мелкий снег / The Makioka Sisters / Sasame yuki (1983) BDRip 720p | SUB торрент скачать бесплатно

    Опубликовал: Админ | Дата: 27-02-2015, 11:09 | Просмотров: 306



    Название: Мелкий снег / The Makioka Sisters
    Оригинальное название: ?? / Sasame yuki
    Год выхода: 1983
    Жанр: драма
    Режиссер: Кон Итикава / Kon Ichikawa
    В главных ролях: Кэйко Киси / Keiko Kishi; Ёсико Сакума / Yoshiko Sakuma; Саюри / Ёсинага / Sayuri Yoshinaga; Юко Котэгава / Yuko Kotegawa; Дзюдзо Итами / Juzo Itami; Кодзи Исидзака / Koji Ishizaka; Тошиюки Хосокава / Toshiyuki Hosokawa; Иттоку Кисибэ / Ittoku Kishibe; Такенори Эмото / Takenori Emoto; Дзюн Хамамура / Jun Hamamura; Джан Хасидзумэ / Jun Hashizume; Акидзи Кобаяси / Akiji Kobayashi; Кадзуя Косака / Kazuya Kosaka; Кунико Миякэ / Kuniko Miyake; Акеми Негиси / Akemi Negishi; Мики Санжо / Miki Sanjo; Нобуко Сендо / Nobuko Sendo и др.




    О фильме:
    В начале 2-й Мировой Войны четыре сестры (Цуруко, Сатико, Юкико и Таэко) из знатной семьи Макиока борются за сохранение традиций, хотя времена изменились и знатное имя значит в Японии намного меньше, чем деньги и карьера. Жестокие времена рождают жестокие чувства, но любовь к своей семье, тесная связь между сестрами помогают им преодолеть все невзгоды и добиться счастья.




    Страна: Япония
    Продолжительность: 02:20:34 (140 мин.)
    Озвучивание: оригинал
    Субтитры #1: Русские - дед_сто_лет
    Субтитры #2: Английские


    Качество: BDRip 720p (*.mkv)
    Video: MPEG4 Video (H264); 1280x672; 23.976 fps; ~4194 Kbps; 0.203 bit/pixel
    Audio: Японский; AC3 Dolby Digital; CBR; 256 Kbps; 1 channel (C); 48.0 KHz



    Пример субтитров (русские):
    1
    00:00:22,189 -- 00:00:27,443
    В ОЗНАМЕНОВАНИЕ 50-летия
    СТУДИИ ТОХО

    2
    00:00:38,205 -- 00:00:43,126
    Производство студии ТОХО

    3
    00:00:43,711 -- 00:00:47,714
    SASAMEYUKI
    МЕЛКИЙ СНЕГ

    4
    00:01:15,659 -- 00:01:19,871
    Весна 1938 года...

    5
    00:01:24,501 -- 00:01:26,335
    Деньги?

    6
    00:01:30,174 -- 00:01:31,883
    А эти деньги.

    7
    00:01:32,509 -- 00:01:35,303
    Ты что, ничего не сказала о них?

    8
    00:01:35,429 -- 00:01:36,846
    - Их нельзя использовать.
    - Почему?

    9
    00:01:37,014 -- 00:01:39,849
    Она сказала, что это твое приданое.

    10
    00:01:39,975 -- 00:01:41,017
    Но...

    11
    00:01:41,143 -- 00:01:44,520
    Твоя сестра сказала, что ни на что
    другое их использовать нельзя.

    12
    00:01:44,688 -- 00:01:47,315
    Но это же мои деньги.

    13
    00:01:48,692 -- 00:01:52,737
    Юкико, неужели нельзя у неё потребовать.

    14
    00:01:52,863 -- 00:01:55,907
    Она и твои деньги забрала.

    15
    00:01:59,203 -- 00:02:02,663
    Таэко, а ты знаешь, какая это сумма?

    16
    00:02:02,790 -- 00:02:05,541
    Нет, а ты?

    17
    00:02:05,667 -- 00:02:06,834
    Нет.

    18
    00:02:06,960 -- 00:02:09,045
    Я тоже не знаю.

    19
    00:02:09,171 -- 00:02:14,217
    Сколько денег наш покойный отец
    поручил Цуруко

    20
    00:02:14,343 -- 00:02:16,511
    для нашего приданого...
    MediaInfo
    General
    Unique ID : 223996109475773976700996692603886156524 (0xA88414DAFE21C3CB8F6CD561D154BAEC)
    Complete name : The.Makioka.Sisters.1983.BDRip.720p.mkv
    Format : Matroska
    Format version : Version 1
    File size : 4.37 GiB
    Duration : 2h 20mn
    Overall bit rate : 4 454 Kbps
    Encoded date : UTC 2011-09-15 21:14:53
    Writing application : mkvmerge v2.2.0 (;Turn It On Again;) built on Mar 4 2008 13:20:25
    Writing library : libebml v0.7.7 libmatroska v0.8.1

    Video
    ID : 1
    Format : AVC
    Format/Info : Advanced Video Codec
    Format profile : High@L3.1
    Format settings, CABAC : Yes
    Format settings, ReFrames : 5 frames
    Codec ID : V_MPEG4/ISO/AVC
    Duration : 2h 20mn
    Bit rate : 4 194 Kbps
    Width : 1 280 pixels
    Height : 672 pixels
    Display aspect ratio : 1.905
    Frame rate mode : Constant
    Frame rate : 23.976 fps
    Color space : YUV
    Chroma subsampling : 4:2:0
    Bit depth : 8 bits
    Scan type : Progressive
    Bits/(Pixel*Frame) : 0.203
    Stream size : 4.03 GiB (92%)
    Writing library : x264 core 115 r1995 c1e60b9
    Encoding settings : cabac=1 / ref=5 / deblock=1:0:0 / analyse=0x3:0x133 / me=umh / subme=7 / psy=1 / psy_rd=1.00:0.00 / mixed_ref=1 / me_range=16 / chroma_me=1 / trellis=1 / 8x8dct=1 / cqm=0 / deadzone=21,11 / fast_pskip=0 / chroma_qp_offset=-2 / threads=6 / sliced_threads=0 / nr=0 / decimate=1 / interlaced=0 / bluray_compat=0 / constrained_intra=0 / bframes=3 / b_pyramid=2 / b_adapt=2 / b_bias=0 / direct=3 / weightb=1 / open_gop=0 / weightp=2 / keyint=250 / keyint_min=23 / scenecut=40 / intra_refresh=0 / rc_lookahead=50 / rc=2pass / mbtree=1 / bitrate=4194 / ratetol=1.0 / qcomp=0.60 / qpmin=0 / qpmax=69 / qpstep=4 / cplxblur=20.0 / qblur=0.5 / ip_ratio=1.40 / aq=1:1.00
    Language : English
    Default : Yes
    Forced : No

    Audio
    ID : 2
    Format : AC-3
    Format/Info : Audio Coding 3
    Mode extension : CM (complete main)
    Format settings, Endianness : Big
    Codec ID : A_AC3
    Duration : 2h 20mn
    Bit rate mode : Constant
    Bit rate : 256 Kbps
    Channel count : 1 channel
    Channel positions : Front: C
    Sampling rate : 48.0 KHz
    Bit depth : 16 bits
    Compression mode : Lossy
    Stream size : 257 MiB (6%)
    Language : Japanese
    Default : Yes
    Forced : No

    Text #1
    ID : 3
    Format : UTF-8
    Codec ID : S_TEXT/UTF8
    Codec ID/Info : UTF-8 Plain Text
    Language : Russian
    Default : Yes
    Forced : No

    Text #2
    ID : 4
    Format : UTF-8
    Codec ID : S_TEXT/UTF8
    Codec ID/Info : UTF-8 Plain Text
    Language : English
    Default : No
    Forced : No


    Размер: 4.37 GB (4695705094 Bytes)

    Мелкий снег / The Makioka Sisters / Sasame yuki (1983) BDRip 720p | SUB торрент скачать бесплатно
    загрузка...
    Рейтинг →
     (голосов: 1, оценка 3/5, голосовать можно 1 раз )

    Другие торренты по теме:

  • Мелкий снег / The Makioka Sisters / Sasame yuki (1983) DVDRip | SUB торрент скачать бесплатно


    • Комментарии (0):

      Информация

      Информация

        Посетители, находящиеся в группе Гости, не могут оставлять комментарии в данной новости.

        ↓ Меню



        ↓ Опрос

        А Вы добавили сайт в закладки?
        Да
        Не


        Top 10 за неделю (Фильмы)