.
Авторизация | Регистрация
Хочешь лучшие торренты? Добавь свой email!
Добавить
» » Анатомия страсти / Анатомия Грей / Greys Anatomy (2012) WEB-DL 1080p | Sub торрент скачать бесплатно




    Анатомия страсти / Анатомия Грей / Greys Anatomy (2012) WEB-DL 1080p | Sub торрент скачать бесплатно

    Опубликовал: Админ | Дата: 27-02-2015, 11:09 | Просмотров: 431

    Анатомия Страсти / Анатомия Грей / Grey;s Anatomy


    Год выпуска: 2013
    Страна: США
    Жанр: Драма
    Продолжительность: 00:45:00
    Перевод: Субтитры
    Субтитры Русские (Notabenoid), Английские
    Режиссёр: Роб Корн
    В ролях: Эллен Помпео (Мередит Грей), Сандра О (Кристина Янг), Джастин Чэмберс (Алекс Карев), Патрик Дэмпси (Дерек Шепард), Сара Рамирез (Кэлли Торрес), Джеймс Пикенс мл. (Шеф Веббер), Чэндра Уилсон (Миранда Бэйли), Кевин МакКидд (Оуэн Хант), Джессика Кэпшоу (Аризона Роббинс) и др.

    Описание:
    Продолжение знаменитой медицинской драмы о работе и личных отношениях хирургов сиэтлской больницы. Каждый день наполнен болью и счастьем, ссорами и примирениями, сложными дилеммами и необходимостью принять моментальное решение от которого зависит жизнь человека. В центре сюжета хирург - Мередит...

    Сэмпл

    Качество: WEB-DL 1080p
    Контейнер: MKV
    Видео кодек: H.264
    Аудио кодек: AC3
    Видео: 1920x1080 (16:9), 23.976 fps, ~5000 kbps, ~0.10 bit/pixel
    Аудио: AC3, 48 kHz, 6 ch, ~384 kbps
    MediaInfo

    General
    Unique ID : 222944783982203811589358172248806786449 (0xA7B99A81B43DC80FB3E6173DFB7C0591)
    Complete name : D:DownloadsGreys.Anatomy.S10E01.Seal.Our.Fate.1080p.WEB-DL.DD5.1.H.264-NTb.mkv
    Format : Matroska
    Format version : Version 4 / Version 2
    File size : 1.63 GiB
    Duration : 43mn 4s
    Overall bit rate : 5 408 Kbps
    Encoded date : UTC 2013-09-30 04:06:07
    Writing application : mkvmerge v6.0.0 (;Coming Up For Air;) built on Jan 20 2013 09:52:00
    Writing library : libebml v1.3.0 libmatroska v1.4.0

    Video
    ID : 1
    Format : AVC
    Format/Info : Advanced Video Codec
    Format profile : High@L4.0
    Format settings, CABAC : Yes
    Format settings, ReFrames : 4 frames
    Codec ID : V_MPEG4/ISO/AVC
    Duration : 43mn 4s
    Bit rate : 4 916 Kbps
    Width : 1 920 pixels
    Height : 1 080 pixels
    Display aspect ratio : 16:9
    Frame rate mode : Constant
    Frame rate : 23.976 fps
    Color space : YUV
    Chroma subsampling : 4:2:0
    Bit depth : 8 bits
    Scan type : Progressive
    Bits/(Pixel*Frame) : 0.099
    Stream size : 1.48 GiB (91%)
    Language : English
    Default : Yes
    Forced : No
    Color primaries : BT.709
    Transfer characteristics : BT.709
    Matrix coefficients : BT.709

    Audio
    ID : 2
    Format : AC-3
    Format/Info : Audio Coding 3
    Mode extension : CM (complete main)
    Format settings, Endianness : Big
    Codec ID : A_AC3
    Duration : 43mn 4s
    Bit rate mode : Constant
    Bit rate : 384 Kbps
    Channel(s) : 6 channels
    Channel positions : Front: L C R, Side: L R, LFE
    Sampling rate : 48.0 KHz
    Bit depth : 16 bits
    Compression mode : Lossy
    Stream size : 118 MiB (7%)
    Language : English
    Default : Yes
    Forced : No

    Text #1
    ID : 3
    Format : UTF-8
    Codec ID : S_TEXT/UTF8
    Codec ID/Info : UTF-8 Plain Text
    Title : Russian
    Language : Russian
    Default : Yes
    Forced : No

    Text #2
    ID : 4
    Format : UTF-8
    Codec ID : S_TEXT/UTF8
    Codec ID/Info : UTF-8 Plain Text
    Title : English
    Language : English
    Default : No
    Forced : No

    Скриншоты


    Внимание! Раздача ведется путем добавления новых серий

    При каждом добавлении создаётся новый торрент. Чтобы начать закачку новой серии, необходимо сделать следующее:

    (1) остановить скачивание,
    (2) удалить старый торрент у себя из клиента (старые серии удалять не надо),
    (3) скачать новый торрент и запустить его в клиенте вместо старого, при этом указать клиенту путь в старую папку куда и должно происходить скачивание новых серий.

    Ваш клиент при этом должен произвести хеширование (проверку) старой папки (если не производит сам - помогите ему сделать это), и будет докачивать только те серии которых у вас ещё нет. Старые серии при этом не удаляются, а продолжают раздаваться! Eсли вы уже удалили старые серии, то предотвратить повторную закачку старых серий можно, отжав галочку в соответствующих местах при запуске нового торрента.

    Размер: 3.33 GB (3578288816 Bytes)

    Анатомия страсти / Анатомия Грей / Greys Anatomy (2012) WEB-DL 1080p | Sub торрент скачать бесплатно
    загрузка...
    Рейтинг →
     (голосов: 1, оценка 3/5, голосовать можно 1 раз )

    Другие торренты по теме:

  • Анатомия страсти / Анатомия Грей / Greys Anatomy (2012) WEB-DLRip 1080i | Кубик в Кубе
  • Анатомия страсти / Анатомия Грей / Greys Anatomy (2012) WEB-DLRip 720p | FOX Life
  • Анатомия страсти / Анатомия Грей / Greys Anatomy (2012) WEB-DLRip | FOX Life
  • Анатомия страсти / Анатомия Грей / Greys Anatomy (2013) HDTVRip
  • Анатомия страсти / Анатомия Грей / Greys Anatomy (2012) WEB-DL 1080p
  • Анатомия страсти / Анатомия Грей / Greys Anatomy (2013) HDTVRip 720р скачать через торрент бесплатно
  • Анатомия страсти / Анатомия Грей / Greys Anatomy (2013) WEB-DLRip | Fox Life скачать через торрент бесплатно
  • Анатомия страсти / Анатомия Грей / Greys Anatomy (2013) WEB-DL 720p | Fox Life скачать через торрент бесплатно


    • Комментарии (0):

      Информация

      Информация

        Посетители, находящиеся в группе Гости, не могут оставлять комментарии в данной новости.

        ↓ Меню



        ↓ Опрос

        А Вы добавили сайт в закладки?
        Да
        Не


        Top 10 за месяц (Фильмы)